<?xml version="1.0" standalone="no"?>
<!DOCTYPE svg PUBLIC "-//W3C//DTD SVG 1.1//EN" "http://www.w3.org/Graphics/SVG/1.1/DTD/svg11.dtd" >
<svg xmlns="http://www.w3.org/2000/svg">
<metadata>Generated by IcoMoon</metadata>
<defs>
<font id="icomoon" horiz-adv-x="1024">
<font-face units-per-em="1024" ascent="960" descent="-64" />
<missing-glyph horiz-adv-x="1024" />
<glyph unicode="&#x20;" horiz-adv-x="512" d="" />
<glyph unicode="&#xe900;" glyph-name="access-alarm" d="M938.667 715.947l-196.267 164.693-55.040-65.28 196.267-164.693 55.040 65.28zM336.213 815.36l-54.613 65.28-196.267-164.267 55.040-65.28 195.84 164.267zM533.333 618.667h-64v-256l202.667-121.6 32 52.48-170.667 101.12v224zM512 789.333c-212.053 0-384-171.947-384-384s171.52-384 384-384c212.053 0 384 171.947 384 384s-171.947 384-384 384v0zM512 106.667c-165.12 0-298.667 133.547-298.667 298.667s133.547 298.667 298.667 298.667c165.12 0 298.667-133.547 298.667-298.667s-133.547-298.667-298.667-298.667v0z" />
<glyph unicode="&#xe901;" glyph-name="access-alarms" d="M938.667 715.947l-196.267 164.693-55.040-65.28 196.267-164.693 55.040 65.28zM336.213 815.36l-54.613 65.28-196.267-164.267 55.040-65.28 195.84 164.267zM533.333 618.667h-64v-256l202.667-121.6 32 52.48-170.667 101.12v224zM512 789.333c-212.053 0-384-171.947-384-384s171.52-384 384-384c212.053 0 384 171.947 384 384s-171.947 384-384 384v0zM512 106.667c-165.12 0-298.667 133.547-298.667 298.667s133.547 298.667 298.667 298.667c165.12 0 298.667-133.547 298.667-298.667s-133.547-298.667-298.667-298.667v0z" />
<glyph unicode="&#xe902;" glyph-name="access-time" d="M511.573 874.667c-235.52 0-426.24-191.147-426.24-426.667s190.72-426.667 426.24-426.667c235.947 0 427.093 191.147 427.093 426.667s-191.147 426.667-427.093 426.667v0zM512 789.333c188.587 0 341.333-152.747 341.333-341.333s-152.747-341.333-341.333-341.333c-188.587 0-341.333 152.747-341.333 341.333s152.747 341.333 341.333 341.333zM533.333 661.333h-64v-256l224-134.4 32 52.48-192 113.92v224z" />
<glyph unicode="&#xe903;" glyph-name="adb" d="M213.333 277.333c0-165.12 133.547-298.667 298.667-298.667s298.667 133.547 298.667 298.667v170.667h-597.333v-170.667zM687.787 773.547l89.6 89.6-34.987 35.413-98.133-98.56c-40.107 20.053-84.48 32-132.267 32s-92.16-11.947-131.84-32l-98.56 98.56-34.987-35.413 89.6-89.6c-74.24-54.187-122.88-141.227-122.88-240.213v-42.667h597.333v42.667c0 98.987-48.64 186.027-122.88 240.213v0zM384 576c-23.467 0-42.667 19.2-42.667 42.667s19.2 42.667 42.667 42.667c23.467 0 42.667-19.2 42.667-42.667s-19.2-42.667-42.667-42.667v0zM640 576c-23.467 0-42.667 19.2-42.667 42.667s19.2 42.667 42.667 42.667c23.467 0 42.667-19.2 42.667-42.667s-19.2-42.667-42.667-42.667v0z" />
<glyph unicode="&#xe904;" glyph-name="add" d="M810.667 405.333h-256v-256h-85.333v256h-256v85.333h256v256h85.333v-256h256z" />
<glyph unicode="&#xe905;" glyph-name="add-a-photo" d="M128 789.333v128h85.333v-128h128v-85.333h-128v-128h-85.333v128h-128v85.333h128zM256 533.333v128h128v128h298.667l78.080-85.333h135.253c46.933 0 85.333-38.4 85.333-85.333v-512c0-46.933-38.4-85.333-85.333-85.333h-682.667c-46.933 0-85.333 38.4-85.333 85.333v426.667h128zM554.667 149.333c117.76 0 213.333 95.573 213.333 213.333s-95.573 213.333-213.333 213.333c-117.76 0-213.333-95.573-213.333-213.333s95.573-213.333 213.333-213.333v0zM418.133 362.667c0-75.52 61.013-136.533 136.533-136.533s136.533 61.013 136.533 136.533c0 75.52-61.013 136.533-136.533 136.533s-136.533-61.013-136.533-136.533v0z" />
<glyph unicode="&#xe906;" glyph-name="add-alarm" d="M336.213 815.36l-54.613 65.28-196.267-164.267 55.040-65.28 195.84 164.267zM938.667 715.947l-196.267 164.693-55.040-65.28 196.267-164.693 55.040 65.28zM512 789.333c-212.053 0-384-171.947-384-384s171.52-384 384-384c212.053 0 384 171.947 384 384s-171.947 384-384 384v0zM512 106.667c-165.12 0-298.667 133.547-298.667 298.667s133.547 298.667 298.667 298.667c165.12 0 298.667-133.547 298.667-298.667s-133.547-298.667-298.667-298.667v0zM554.667 576h-85.333v-128h-128v-85.333h128v-128h85.333v128h128v85.333h-128v128z" />
<glyph unicode="&#xe907;" glyph-name="add-box" d="M810.667 832h-597.333c-47.36 0-85.333-38.4-85.333-85.333v-597.333c0-46.933 37.973-85.333 85.333-85.333h597.333c46.933 0 85.333 38.4 85.333 85.333v597.333c0 46.933-38.4 85.333-85.333 85.333v0zM725.333 405.333h-170.667v-170.667h-85.333v170.667h-170.667v85.333h170.667v170.667h85.333v-170.667h170.667v-85.333z" />
<glyph unicode="&#xe908;" glyph-name="add-circle" d="M512 874.667c-235.52 0-426.667-191.147-426.667-426.667s191.147-426.667 426.667-426.667c235.52 0 426.667 191.147 426.667 426.667s-191.147 426.667-426.667 426.667v0zM725.333 405.333h-170.667v-170.667h-85.333v170.667h-170.667v85.333h170.667v170.667h85.333v-170.667h170.667v-85.333z" />
<glyph unicode="&#xe909;" glyph-name="add-circle-outline" d="M554.667 661.333h-85.333v-170.667h-170.667v-85.333h170.667v-170.667h85.333v170.667h170.667v85.333h-170.667v170.667zM512 874.667c-235.52 0-426.667-191.147-426.667-426.667s191.147-426.667 426.667-426.667c235.52 0 426.667 191.147 426.667 426.667s-191.147 426.667-426.667 426.667v0zM512 106.667c-188.16 0-341.333 153.173-341.333 341.333s153.173 341.333 341.333 341.333c188.16 0 341.333-153.173 341.333-341.333s-153.173-341.333-341.333-341.333v0z" />
<glyph unicode="&#xe90a;" glyph-name="add-location" d="M512 874.667c-164.693 0-298.667-133.973-298.667-298.667 0-224 298.667-554.667 298.667-554.667s298.667 330.667 298.667 554.667c0 164.693-133.973 298.667-298.667 298.667v0zM682.667 533.333h-128v-128h-85.333v128h-128v85.333h128v128h85.333v-128h128v-85.333z" />
<glyph unicode="&#xe90b;" glyph-name="add-to-photos" d="M170.667 704h-85.333v-597.333c0-46.933 38.4-85.333 85.333-85.333h597.333v85.333h-597.333v597.333zM853.333 874.667h-512c-46.933 0-85.333-38.4-85.333-85.333v-512c0-46.933 38.4-85.333 85.333-85.333h512c46.933 0 85.333 38.4 85.333 85.333v512c0 46.933-38.4 85.333-85.333 85.333v0zM810.667 490.667h-170.667v-170.667h-85.333v170.667h-170.667v85.333h170.667v170.667h85.333v-170.667h170.667v-85.333z" />
<glyph unicode="&#xe90c;" glyph-name="adjust" d="M512 874.667c-235.093 0-426.667-191.573-426.667-426.667s191.573-426.667 426.667-426.667c235.093 0 426.667 191.573 426.667 426.667s-191.573 426.667-426.667 426.667v0zM512 106.667c-188.16 0-341.333 153.173-341.333 341.333s153.173 341.333 341.333 341.333c188.16 0 341.333-153.173 341.333-341.333s-153.173-341.333-341.333-341.333v0zM640 448c0-70.827-57.173-128-128-128s-128 57.173-128 128c0 70.827 57.173 128 128 128s128-57.173 128-128v0z" />
<glyph unicode="&#xe90d;" glyph-name="airline-seat-flat" d="M938.667 490.667v-85.333h-554.667v256h384c94.293 0 170.667-76.373 170.667-170.667v0zM85.333 362.667v-85.333h256v-85.333h341.333v85.333h256v85.333h-853.333zM304.64 443.733c49.493 50.773 48.64 131.413-1.707 180.907-50.773 49.493-131.413 48.64-180.907-1.707-49.493-50.773-48.64-131.413 1.707-180.907 50.773-49.493 131.413-48.64 180.907 1.707v0z" />
<glyph unicode="&#xe90e;" glyph-name="airline-seat-flat-angled" d="M949.333 350.292l-29.44-80.64-527.36 190.72 88.747 241.493 365.227-131.84c89.6-32.427 135.68-130.56 102.827-219.733v0zM64 442.025l277.333-99.84v-192.853h341.333v69.547l192.853-69.547 29.44 80.64-811.52 292.693-29.44-80.64zM311.467 524.798c63.573 30.72 90.453 107.093 60.16 170.667-30.72 63.573-107.093 90.453-171.093 59.733-63.573-30.293-90.453-106.667-59.733-170.667 30.293-63.573 106.667-90.453 170.667-59.733v0z" />
<glyph unicode="&#xe90f;" glyph-name="airline-seat-individual-suite" d="M298.667 405.333c70.4 0 128 57.6 128 128s-57.6 128-128 128c-70.4 0-128-57.6-128-128s57.6-128 128-128v0zM810.667 661.333h-341.333v-298.667h-341.333v298.667h-85.333v-426.667h938.667v256c0 94.293-76.373 170.667-170.667 170.667v0z" />
<glyph unicode="&#xe910;" glyph-name="airline-seat-legroom-extra" d="M170.667 448v384h-85.333v-384c0-117.76 95.573-213.333 213.333-213.333h256v85.333h-256c-70.827 0-128 57.173-128 128v0zM974.080 224.427c-16.213 30.72-55.040 41.387-86.613 26.88l-46.507-21.333-145.493 297.813c-14.507 29.013-43.947 47.787-76.373 47.787l-149.76 0.427v256h-256v-341.333c0-70.827 57.173-128 128-128h298.667l145.493-298.667 158.72 72.533c32.853 15.36 46.933 55.467 29.867 87.893v0z" />
<glyph unicode="&#xe911;" glyph-name="airline-seat-legroom-normal" d="M213.333 448v384h-85.333v-384c0-117.76 95.573-213.333 213.333-213.333h256v85.333h-256c-70.827 0-128 57.173-128 128v0zM874.667 192h-64v298.667c0 46.933-38.4 85.333-85.333 85.333h-213.333v256h-256v-341.333c0-70.4 57.6-128 128-128h298.667v-298.667h192c35.413 0 64 28.587 64 64s-28.587 64-64 64v0z" />
<glyph unicode="&#xe912;" glyph-name="airline-seat-legroom-reduced" d="M852.053 140.8c7.68-40.96-23.467-76.8-62.72-76.8h-192v128l42.667 170.667h-256c-70.4 0-128 57.6-128 128v341.333h256v-256h213.333c46.933 0 85.333-38.4 85.333-85.333l-85.333-298.667h61.44c31.147 0 59.307-20.907 65.28-51.2v0zM213.333 448v384h-85.333v-384c0-117.76 95.573-213.333 213.333-213.333h170.667v85.333h-170.667c-70.827 0-128 57.173-128 128v0z" />
<glyph unicode="&#xe913;" glyph-name="airline-seat-recline-extra" d="M228.267 719.361c-38.4 27.307-47.787 80.213-20.907 119.040 26.88 38.4 80.213 47.787 119.040 20.907 38.4-27.307 47.787-80.213 20.907-119.040-27.307-38.4-80.213-47.787-119.040-20.907v0zM682.667 149.334h-301.653c-63.147 0-116.907 46.080-126.293 108.373l-84.053 403.627h-85.333l84.907-416.427c16.213-104.107 105.813-180.907 211.2-180.907h301.227v85.333zM692.48 320.001h-208.213l-43.947 174.933c67.413-37.973 139.947-65.707 219.733-52.053v90.88c-69.547-13.227-146.773 11.52-200.107 53.333l-69.973 54.187c-9.813 7.68-20.907 12.8-32.427 16.213-13.653 3.84-28.16 5.12-42.24 2.56h-0.853c-52.48-9.387-87.467-59.307-78.507-111.36l57.6-252.587c11.947-60.587 64.427-104.107 125.867-104.107h292.267l162.987-128 64 64-246.187 192z" />
<glyph unicode="&#xe914;" glyph-name="airline-seat-recline-normal" d="M323.84 729.173c-33.28 33.28-33.28 87.467 0 120.747s87.467 33.28 120.747 0c33.28-33.28 33.28-87.467 0-120.747-33.707-33.707-87.467-33.707-120.747 0v0zM256 277.333v384h-85.333v-384c0-117.76 95.573-213.333 213.333-213.333h256v85.333h-256c-70.827 0-128 57.173-128 128v0zM853.333 103.68l-216.32 216.32h-146.347v157.013c59.733-49.067 153.6-92.16 234.667-92.16v92.16c-70.827-0.853-154.027 37.12-199.253 87.040l-59.733 66.133c-8.107 8.96-18.347 16.213-29.44 21.333-12.373 5.973-26.453 9.813-40.96 9.813h-1.28c-52.907 0-96-43.093-96-96v-245.333c0-70.827 57.173-128 128-128h216.32l149.333-149.333 61.013 61.013z" />
<glyph unicode="&#xe915;" glyph-name="airplanemode-active" d="M896 277.333v85.333l-341.333 213.333v234.667c0 35.413-28.587 64-64 64s-64-28.587-64-64v-234.667l-341.333-213.333v-85.333l341.333 106.667v-234.667l-85.333-64v-64l149.333 42.667 149.333-42.667v64l-85.333 64v234.667l341.333-106.667z" />
<glyph unicode="&#xe916;" glyph-name="airplanemode-inactive" d="M554.667 576v234.667c0 35.413-28.587 64-64 64s-64-28.587-64-64v-157.013l334.080-334.080 135.253-42.24v85.333l-341.333 213.333zM128 735.147l212.907-212.907-255.573-159.573v-85.333l341.333 106.667v-234.667l-85.333-64v-64l149.333 42.667 149.333-42.667v64l-85.333 64v159.147l244.48-244.48 54.187 54.187-671.147 671.147-54.187-54.187z" />
<glyph unicode="&#xe917;" glyph-name="airport-shuttle" d="M725.333 746.667h-597.333c-46.933 0-85.333-37.973-85.333-85.333v-384h85.333c0-70.4 57.173-128 128-128s128 57.6 128 128h234.667c0-70.4 57.173-128 128-128s128 57.6 128 128h106.667v213.333l-256 256zM128 490.667v170.667h170.667v-170.667h-170.667zM256 213.333c-35.413 0-64 28.587-64 64s28.587 64 64 64c35.413 0 64-28.587 64-64s-28.587-64-64-64v0zM554.667 490.667h-170.667v170.667h170.667v-170.667zM746.667 213.333c-35.413 0-64 28.587-64 64s28.587 64 64 64c35.413 0 64-28.587 64-64s-28.587-64-64-64v0zM640 490.667v170.667h42.667l170.667-170.667h-213.333z" />
<glyph unicode="&#xe918;" glyph-name="all-inclusive" d="M793.6 677.547c-61.44 0-119.467-23.893-160.853-65.28l-120.747-107.093-64.853-57.173h0.427l-114.773-101.973c-27.307-27.307-63.573-42.24-102.4-42.24-79.787 0-144.64 64.427-144.64 144.213s64.853 144.213 144.64 144.213c38.827 0 75.093-14.933 104.107-43.947l48.213-42.667 64.427 57.173-53.76 47.36c-43.52 43.52-101.547 67.413-162.987 67.413-127.147 0-230.4-103.253-230.4-229.547s103.253-229.547 230.4-229.547c61.44 0 119.467 23.893 160.853 65.28l120.747 106.667 0.427-0.427 64.427 58.027h-0.427l114.773 101.973c27.307 27.307 63.573 42.24 102.4 42.24 79.787 0 144.64-64.427 144.64-144.213s-64.853-144.213-144.64-144.213c-38.4 0-75.093 14.933-104.107 43.947l-48.64 43.093-64.427-57.173 54.187-47.787c43.52-43.093 101.12-66.987 162.987-66.987 127.147 0 230.4 102.827 230.4 229.547s-103.253 229.12-230.4 229.12v0z" />
<glyph unicode="&#xe919;" glyph-name="apps" d="M170.667 618.667h170.667v170.667h-170.667v-170.667zM426.667 106.667h170.667v170.667h-170.667v-170.667zM170.667 106.667h170.667v170.667h-170.667v-170.667zM170.667 362.667h170.667v170.667h-170.667v-170.667zM426.667 362.667h170.667v170.667h-170.667v-170.667zM682.667 789.333v-170.667h170.667v170.667h-170.667zM426.667 618.667h170.667v170.667h-170.667v-170.667zM682.667 362.667h170.667v170.667h-170.667v-170.667zM682.667 106.667h170.667v170.667h-170.667v-170.667z" />
<glyph unicode="&#xe91a;" glyph-name="archive" d="M876.373 736.853l-59.307 71.68c-11.52 14.507-29.013 23.467-49.067 23.467h-512c-20.053 0-37.547-8.96-49.493-23.467l-58.88-71.68c-12.373-14.507-19.627-33.707-19.627-54.187v-533.333c0-46.933 38.4-85.333 85.333-85.333h597.333c46.933 0 85.333 38.4 85.333 85.333v533.333c0 20.48-7.253 39.68-19.627 54.187v0zM512 213.333l-234.667 234.667h149.333v85.333h170.667v-85.333h149.333l-234.667-234.667zM218.453 746.667l34.56 42.667h512l40.107-42.667h-586.667z" />
<glyph unicode="&#xe91b;" glyph-name="arrow-back" d="M853.333 490.667h-519.253l238.507 238.507-60.587 60.16-341.333-341.333 341.333-341.333 60.16 60.16-238.080 238.507h519.253z" />
<glyph unicode="&#xe91c;" glyph-name="arrow-downward" d="M853.333 448l-60.16 60.16-238.507-238.080v519.253h-85.333v-519.253l-238.080 238.507-60.587-60.587 341.333-341.333z" />
<glyph unicode="&#xe91d;" glyph-name="arrow-drop-down" d="M298.667 533.333l213.333-213.333 213.333 213.333z" />
<glyph unicode="&#xe91e;" glyph-name="arrow-drop-down-circle" d="M512 874.667c-235.52 0-426.667-191.147-426.667-426.667s191.147-426.667 426.667-426.667c235.52 0 426.667 191.147 426.667 426.667s-191.147 426.667-426.667 426.667v0zM512 362.667l-170.667 170.667h341.333l-170.667-170.667z" />
<glyph unicode="&#xe91f;" glyph-name="arrow-drop-up" d="M298.667 362.667l213.333 213.333 213.333-213.333z" />
<glyph unicode="&#xe920;" glyph-name="arrow-forward" d="M512 789.333l-60.16-60.16 238.080-238.507h-519.253v-85.333h519.253l-238.080-238.507 60.16-60.16 341.333 341.333z" />
<glyph unicode="&#xe921;" glyph-name="arrow-upward" d="M170.667 448l60.16-60.16 238.507 238.080v-519.253h85.333v519.253l238.080-238.507 60.587 60.587-341.333 341.333z" />
<glyph unicode="&#xe922;" glyph-name="assistant" d="M810.667 874.667h-597.333c-46.933 0-85.333-38.4-85.333-85.333v-597.333c0-46.933 38.4-85.333 85.333-85.333h170.667l128-128 128 128h170.667c46.933 0 85.333 38.4 85.333 85.333v597.333c0 46.933-38.4 85.333-85.333 85.333v0zM592.213 410.453l-80.213-175.787-80.213 175.787-175.787 80.213 175.787 80.213 80.213 175.787 80.213-175.787 175.787-80.213-175.787-80.213z" />
<glyph unicode="&#xe923;" glyph-name="assistant-photo" d="M614.4 704l-17.067 85.333h-384v-725.333h85.333v298.667h238.933l17.067-85.333h298.667v426.667z" />
<glyph unicode="&#xe924;" glyph-name="attach-file" d="M704 704v-490.667c0-94.293-76.373-170.667-170.667-170.667s-170.667 76.373-170.667 170.667v533.333c0 58.88 47.787 106.667 106.667 106.667s106.667-47.787 106.667-106.667v-448c0-23.467-19.2-42.667-42.667-42.667s-42.667 19.2-42.667 42.667v405.333h-64v-405.333c0-58.88 47.787-106.667 106.667-106.667s106.667 47.787 106.667 106.667v448c0 94.293-76.373 170.667-170.667 170.667s-170.667-76.373-170.667-170.667v-533.333c0-129.707 104.96-234.667 234.667-234.667s234.667 104.96 234.667 234.667v490.667h-64z" />
<glyph unicode="&#xe925;" glyph-name="attach-money" d="M503.467 494.933c-96.853 25.173-128 51.2-128 91.733 0 46.507 43.093 78.933 115.2 78.933 75.947 0 104.107-36.267 106.667-89.6h94.293c-2.987 73.387-47.787 140.8-136.96 162.56v93.44h-128v-92.16c-82.773-17.92-149.333-71.68-149.333-154.027 0-98.56 81.493-147.627 200.533-176.213 106.667-25.6 128-63.147 128-102.827 0-29.44-20.907-76.373-115.2-76.373-87.893 0-122.453 39.253-127.147 89.6h-93.867c5.12-93.44 75.093-145.92 157.013-163.413v-92.587h128v91.733c83.2 15.787 149.333 64 149.333 151.467 0 121.173-103.68 162.56-200.533 187.733v0z" />
<glyph unicode="&#xe926;" glyph-name="attachment" d="M85.333 426.667c0 129.707 104.96 234.667 234.667 234.667h448c94.293 0 170.667-76.373 170.667-170.667s-76.373-170.667-170.667-170.667h-362.667c-58.88 0-106.667 47.787-106.667 106.667s47.787 106.667 106.667 106.667h320v-85.333h-323.84c-23.467 0-23.467-42.667 0-42.667h366.507c46.933 0 85.333 38.4 85.333 85.333s-38.4 85.333-85.333 85.333h-448c-82.347 0-149.333-66.987-149.333-149.333s66.987-149.333 149.333-149.333h405.333v-85.333h-405.333c-129.707 0-234.667 104.96-234.667 234.667v0z" />
<glyph unicode="&#xe927;" glyph-name="audiotrack" d="M512 832v-395.947c-20.053 7.253-41.387 11.947-64 11.947-106.24 0-192-85.76-192-192s85.76-192 192-192c98.56 0 179.2 74.667 189.867 170.667h2.133v469.333h170.667v128h-298.667z" />
<glyph unicode="&#xe928;" glyph-name="backspace" d="M938.667 832h-640c-29.44 0-52.48-14.933-67.84-37.547l-230.827-346.453 230.827-346.027c15.36-22.613 38.4-37.973 67.84-37.973h640c46.933 0 85.333 38.4 85.333 85.333v597.333c0 46.933-38.4 85.333-85.333 85.333v0zM810.667 294.827l-60.16-60.16-153.173 153.173-153.173-153.173-60.16 60.16 153.173 153.173-153.173 153.173 60.16 60.16 153.173-153.173 153.173 153.173 60.16-60.16-153.173-153.173 153.173-153.173z" />
<glyph unicode="&#xe929;" glyph-name="battery-alert" d="M668.587 789.333h-71.253v85.333h-170.667v-85.333h-71.253c-31.147 0-56.747-25.6-56.747-56.747v-654.080c0-31.573 25.6-57.173 56.747-57.173h312.747c31.573 0 57.173 25.6 57.173 56.747v654.507c0 31.147-25.6 56.747-56.747 56.747v0zM554.667 192h-85.333v85.333h85.333v-85.333zM554.667 362.667h-85.333v213.333h85.333v-213.333z" />
<glyph unicode="&#xe92a;" glyph-name="battery-charging-full" d="M668.587 789.333h-71.253v85.333h-170.667v-85.333h-71.253c-31.147 0-56.747-25.6-56.747-56.747v-654.080c0-31.573 25.6-57.173 56.747-57.173h312.747c31.573 0 57.173 25.6 57.173 56.747v654.507c0 31.147-25.6 56.747-56.747 56.747v0zM469.333 106.667v234.667h-85.333l170.667 320v-234.667h85.333l-170.667-320z" />
<glyph unicode="&#xe92b;" glyph-name="battery-full" d="M668.587 789.333h-71.253v85.333h-170.667v-85.333h-71.253c-31.147 0-56.747-25.6-56.747-56.747v-654.080c0-31.573 25.6-57.173 56.747-57.173h312.747c31.573 0 57.173 25.6 57.173 56.747v654.507c0 31.147-25.6 56.747-56.747 56.747v0z" />
<glyph unicode="&#xe92c;" glyph-name="battery-std" d="M668.587 789.333h-71.253v85.333h-170.667v-85.333h-71.253c-31.147 0-56.747-25.6-56.747-56.747v-654.080c0-31.573 25.6-57.173 56.747-57.173h312.747c31.573 0 57.173 25.6 57.173 56.747v654.507c0 31.147-25.6 56.747-56.747 56.747v0z" />
<glyph unicode="&#xe92d;" glyph-name="battery-unknown" d="M668.587 789.333h-71.253v85.333h-170.667v-85.333h-71.253c-31.147 0-56.747-25.6-56.747-56.747v-654.080c0-31.573 25.6-57.173 56.747-57.173h312.747c31.573 0 57.173 25.6 57.173 56.747v654.507c0 31.147-25.6 56.747-56.747 56.747v0zM552.533 194.133h-81.067v81.067h81.067v-81.067zM581.547 388.267c-23.609-32.711-35.413-55.467-35.413-68.267h-68.267c0 35.413 19.627 64.853 39.68 85.333l39.68 40.107c10.261 10.261 17.137 24.245 18.517 39.541 0.169 1.877 0.256 3.774 0.256 5.686 0 35.413-28.587 64-64 64s-64-28.587-64-64h-64c0 70.827 57.173 128 128 128s128-57.173 128-128c0-28.16-29.867-72.107-29.867-72.107s-9.529-10.098-28.587-30.293z" />
<glyph unicode="&#xe92e;" glyph-name="beach-access" d="M560.084 338.775l61.013 61.013 274.773-274.901-60.885-60.885-274.901 274.773zM743.252 583.255l122.027 122.027c-168.533 168.533-441.6 168.96-610.133 0.853 167.68 55.467 354.56 10.667 488.107-122.88v0zM253.865 704.855c-168.107-168.533-167.68-441.6 0.853-610.133l122.027 122.027c-133.547 133.547-178.347 320.427-122.88 488.107v0zM254.718 705.708l-0.427-0.427c-16.213-128.427 49.92-293.547 183.467-427.52l244.48 244.48c-133.547 133.547-299.093 199.68-427.52 183.467v0z" />
<glyph unicode="&#xe92f;" glyph-name="beenhere" d="M810.667 917.333h-597.333c-46.933 0-84.907-38.4-84.907-85.333l-0.427-551.68c0-29.44 14.933-55.467 37.547-70.827l346.453-230.827 346.027 230.827c22.613 15.36 37.547 41.387 37.547 70.827l0.427 551.68c0 46.933-38.4 85.333-85.333 85.333v0zM426.667 277.333l-213.333 213.333 60.16 60.16 153.173-152.747 323.84 323.84 60.16-60.587-384-384z" />
<glyph unicode="&#xe930;" glyph-name="block" d="M512 874.667c-235.52 0-426.667-191.147-426.667-426.667s191.147-426.667 426.667-426.667c235.52 0 426.667 191.147 426.667 426.667s-191.147 426.667-426.667 426.667v0zM170.667 448c0 188.587 152.747 341.333 341.333 341.333 78.933 0 151.467-26.88 209.067-72.107l-478.293-478.293c-45.227 57.6-72.107 130.133-72.107 209.067v0zM512 106.667c-78.933 0-151.467 26.88-209.067 72.107l478.293 478.293c45.227-57.6 72.107-130.133 72.107-209.067 0-188.587-152.747-341.333-341.333-341.333v0z" />
<glyph unicode="&#xe931;" glyph-name="bluetooth" d="M755.627 631.040l-243.627 243.627h-42.667v-323.84l-195.84 195.84-60.16-60.16 238.507-238.507-238.507-238.507 60.16-60.16 195.84 195.84v-323.84h42.667l243.627 243.627-183.467 183.040 183.467 183.040zM554.667 711.253l80.213-80.213-80.213-80.213v160.427zM634.88 264.96l-80.213-80.213v160.427l80.213-80.213z" />
<glyph unicode="&#xe932;" glyph-name="bluetooth-audio" d="M607.573 447.573l98.987-98.987c11.947 30.72 18.773 64.427 18.773 99.413s-6.827 67.84-18.347 98.56l-99.413-98.987zM833.28 673.707l-53.76-53.76c26.88-51.627 41.813-109.653 41.813-171.52s-15.36-120.32-41.813-171.52l51.2-51.2c41.387 65.707 65.707 143.36 65.707 226.56-0.427 80.64-23.467 156.587-63.147 221.44v0zM670.293 631.040l-243.627 243.627h-42.667v-323.84l-195.84 195.84-60.16-60.16 238.507-238.507-238.507-238.507 60.16-60.16 195.84 195.84v-323.84h42.667l243.627 243.627-183.467 183.040 183.467 183.040zM469.333 711.253l80.213-80.213-80.213-80.213v160.427zM549.547 264.96l-80.213-80.213v160.427l80.213-80.213z" />
<glyph unicode="&#xe933;" glyph-name="bluetooth-connected" d="M298.667 448l-85.333 85.333-85.333-85.333 85.333-85.333 85.333 85.333zM755.627 631.040l-243.627 243.627h-42.667v-323.84l-195.84 195.84-60.16-60.16 238.507-238.507-238.507-238.507 60.16-60.16 195.84 195.84v-323.84h42.667l243.627 243.627-183.467 183.040 183.467 183.040zM554.667 711.253l80.213-80.213-80.213-80.213v160.427zM634.88 264.96l-80.213-80.213v160.427l80.213-80.213zM810.667 533.333l-85.333-85.333 85.333-85.333 85.333 85.333-85.333 85.333z" />
<glyph unicode="&#xe934;" glyph-name="bluetooth-disabled" d="M554.667 711.253l80.213-80.213-68.267-68.267 60.16-60.16 128.853 128.853-243.627 243.2h-42.667v-214.613l85.333-85.333v136.533zM230.827 789.333l-60.16-60.16 281.173-281.173-238.507-238.507 60.16-60.16 195.84 195.84v-323.84h42.667l183.040 183.040 98.133-97.707 60.16 60.16-622.507 622.507zM554.667 184.747v160.427l80.213-80.213-80.213-80.213z" />
<glyph unicode="&#xe935;" glyph-name="bluetooth-searching" d="M607.573 447.573l98.987-98.987c11.947 30.72 18.773 64.427 18.773 99.413s-6.827 67.84-18.347 98.56l-99.413-98.987zM833.28 673.707l-53.76-53.76c26.88-51.627 41.813-109.653 41.813-171.52s-15.36-120.32-41.813-171.52l51.2-51.2c41.387 65.707 65.707 143.36 65.707 226.56-0.427 80.64-23.467 156.587-63.147 221.44v0zM670.293 631.040l-243.627 243.627h-42.667v-323.84l-195.84 195.84-60.16-60.16 238.507-238.507-238.507-238.507 60.16-60.16 195.84 195.84v-323.84h42.667l243.627 243.627-183.467 183.040 183.467 183.040zM469.333 711.253l80.213-80.213-80.213-80.213v160.427zM549.547 264.96l-80.213-80.213v160.427l80.213-80.213z" />
<glyph unicode="&#xe936;" glyph-name="blur-circular" d="M426.667 576c-23.467 0-42.667-19.2-42.667-42.667s19.2-42.667 42.667-42.667c23.467 0 42.667 19.2 42.667 42.667s-19.2 42.667-42.667 42.667v0zM426.667 405.333c-23.467 0-42.667-19.2-42.667-42.667s19.2-42.667 42.667-42.667c23.467 0 42.667 19.2 42.667 42.667s-19.2 42.667-42.667 42.667v0zM298.667 554.667c-11.947 0-21.333-9.387-21.333-21.333s9.387-21.333 21.333-21.333c11.947 0 21.333 9.387 21.333 21.333s-9.387 21.333-21.333 21.333v0zM426.667 256c-11.947 0-21.333-9.387-21.333-21.333s9.387-21.333 21.333-21.333c11.947 0 21.333 9.387 21.333 21.333s-9.387 21.333-21.333 21.333v0zM298.667 384c-11.947 0-21.333-9.387-21.333-21.333s9.387-21.333 21.333-21.333c11.947 0 21.333 9.387 21.333 21.333s-9.387 21.333-21.333 21.333v0zM426.667 640c11.947 0 21.333 9.387 21.333 21.333s-9.387 21.333-21.333 21.333c-11.947 0-21.333-9.387-21.333-21.333s9.387-21.333 21.333-21.333v0zM597.333 576c-23.467 0-42.667-19.2-42.667-42.667s19.2-42.667 42.667-42.667c23.467 0 42.667 19.2 42.667 42.667s-19.2 42.667-42.667 42.667v0zM597.333 640c11.947 0 21.333 9.387 21.333 21.333s-9.387 21.333-21.333 21.333c-11.947 0-21.333-9.387-21.333-21.333s9.387-21.333 21.333-21.333v0zM725.333 384c-11.947 0-21.333-9.387-21.333-21.333s9.387-21.333 21.333-21.333c11.947 0 21.333 9.387 21.333 21.333s-9.387 21.333-21.333 21.333v0zM725.333 554.667c-11.947 0-21.333-9.387-21.333-21.333s9.387-21.333 21.333-21.333c11.947 0 21.333 9.387 21.333 21.333s-9.387 21.333-21.333 21.333v0zM512 874.667c-235.52 0-426.667-191.147-426.667-426.667s191.147-426.667 426.667-426.667c235.52 0 426.667 191.147 426.667 426.667s-191.147 426.667-426.667 426.667v0zM512 106.667c-188.587 0-341.333 152.747-341.333 341.333s152.747 341.333 341.333 341.333c188.587 0 341.333-152.747 341.333-341.333s-152.747-341.333-341.333-341.333v0zM597.333 256c-11.947 0-21.333-9.387-21.333-21.333s9.387-21.333 21.333-21.333c11.947 0 21.333 9.387 21.333 21.333s-9.387 21.333-21.333 21.333v0zM597.333 405.333c-23.467 0-42.667-19.2-42.667-42.667s19.2-42.667 42.667-42.667c23.467 0 42.667 19.2 42.667 42.667s-19.2 42.667-42.667 42.667v0z" />
<glyph unicode="&#xe937;" glyph-name="blur-linear" d="M213.333 213.333c35.413 0 64 28.587 64 64s-28.587 64-64 64c-35.413 0-64-28.587-64-64s28.587-64 64-64v0zM384 405.333c23.467 0 42.667 19.2 42.667 42.667s-19.2 42.667-42.667 42.667c-23.467 0-42.667-19.2-42.667-42.667s19.2-42.667 42.667-42.667v0zM384 576c23.467 0 42.667 19.2 42.667 42.667s-19.2 42.667-42.667 42.667c-23.467 0-42.667-19.2-42.667-42.667s19.2-42.667 42.667-42.667v0zM128 64h768v85.333h-768v-85.333zM213.333 554.667c35.413 0 64 28.587 64 64s-28.587 64-64 64c-35.413 0-64-28.587-64-64s28.587-64 64-64v0zM213.333 384c35.413 0 64 28.587 64 64s-28.587 64-64 64c-35.413 0-64-28.587-64-64s28.587-64 64-64v0zM384 234.667c23.467 0 42.667 19.2 42.667 42.667s-19.2 42.667-42.667 42.667c-23.467 0-42.667-19.2-42.667-42.667s19.2-42.667 42.667-42.667v0zM725.333 256c11.947 0 21.333 9.387 21.333 21.333s-9.387 21.333-21.333 21.333c-11.947 0-21.333-9.387-21.333-21.333s9.387-21.333 21.333-21.333v0zM128 832v-85.333h768v85.333h-768zM725.333 597.333c11.947 0 21.333 9.387 21.333 21.333s-9.387 21.333-21.333 21.333c-11.947 0-21.333-9.387-21.333-21.333s9.387-21.333 21.333-21.333v0zM725.333 426.667c11.947 0 21.333 9.387 21.333 21.333s-9.387 21.333-21.333 21.333c-11.947 0-21.333-9.387-21.333-21.333s9.387-21.333 21.333-21.333v0zM554.667 576c23.467 0 42.667 19.2 42.667 42.667s-19.2 42.667-42.667 42.667c-23.467 0-42.667-19.2-42.667-42.667s19.2-42.667 42.667-42.667v0zM554.667 405.333c23.467 0 42.667 19.2 42.667 42.667s-19.2 42.667-42.667 42.667c-23.467 0-42.667-19.2-42.667-42.667s19.2-42.667 42.667-42.667v0zM554.667 234.667c23.467 0 42.667 19.2 42.667 42.667s-19.2 42.667-42.667 42.667c-23.467 0-42.667-19.2-42.667-42.667s19.2-42.667 42.667-42.667v0z" />
<glyph unicode="&#xe938;" glyph-name="blur-off" d="M597.333 661.333c23.467 0 42.667 19.2 42.667 42.667s-19.2 42.667-42.667 42.667c-23.467 0-42.667-19.2-42.667-42.667s19.2-42.667 42.667-42.667v0zM588.8 470.187l8.533-0.853c35.413 0 64 28.587 64 64s-28.587 64-64 64c-35.413 0-64-28.587-64-64l0.853-8.533c3.84-28.587 26.027-50.773 54.613-54.613v0zM597.333 810.667c11.947 0 21.333 9.387 21.333 21.333s-9.387 21.333-21.333 21.333c-11.947 0-21.333-9.387-21.333-21.333s9.387-21.333 21.333-21.333v0zM426.667 810.667c11.947 0 21.333 9.387 21.333 21.333s-9.387 21.333-21.333 21.333c-11.947 0-21.333-9.387-21.333-21.333s9.387-21.333 21.333-21.333v0zM896 512c11.947 0 21.333 9.387 21.333 21.333s-9.387 21.333-21.333 21.333c-11.947 0-21.333-9.387-21.333-21.333s9.387-21.333 21.333-21.333v0zM426.667 661.333c23.467 0 42.667 19.2 42.667 42.667s-19.2 42.667-42.667 42.667c-23.467 0-42.667-19.2-42.667-42.667s19.2-42.667 42.667-42.667v0zM768 320c23.467 0 42.667 19.2 42.667 42.667s-19.2 42.667-42.667 42.667c-23.467 0-42.667-19.2-42.667-42.667s19.2-42.667 42.667-42.667v0zM768 490.667c23.467 0 42.667 19.2 42.667 42.667s-19.2 42.667-42.667 42.667c-23.467 0-42.667-19.2-42.667-42.667s19.2-42.667 42.667-42.667v0zM768 661.333c23.467 0 42.667 19.2 42.667 42.667s-19.2 42.667-42.667 42.667c-23.467 0-42.667-19.2-42.667-42.667s19.2-42.667 42.667-42.667v0zM597.333 85.333c-11.947 0-21.333-9.387-21.333-21.333s9.387-21.333 21.333-21.333c11.947 0 21.333 9.387 21.333 21.333s-9.387 21.333-21.333 21.333v0zM106.667 735.147l161.28-161.28-11.947 2.133c-23.467 0-42.667-19.2-42.667-42.667s19.2-42.667 42.667-42.667c23.467 0 42.667 19.2 42.667 42.667 0 4.267-1.28 8.107-2.56 11.947l119.893-119.893c-30.293-4.693-53.333-31.147-53.333-62.72 0-35.413 28.587-64 64-64 31.573 0 58.027 23.040 62.72 53.333l119.893-119.893c-3.84 1.28-7.68 2.56-11.947 2.56-23.467 0-42.667-19.2-42.667-42.667s19.2-42.667 42.667-42.667c23.467 0 42.667 19.2 42.667 42.667 0 4.267-1.28 8.107-2.56 11.947l161.28-161.28 54.613 54.187-692.48 692.48-54.187-54.187zM426.667 234.667c-23.467 0-42.667-19.2-42.667-42.667s19.2-42.667 42.667-42.667c23.467 0 42.667 19.2 42.667 42.667s-19.2 42.667-42.667 42.667v0zM896 384c-11.947 0-21.333-9.387-21.333-21.333s9.387-21.333 21.333-21.333c11.947 0 21.333 9.387 21.333 21.333s-9.387 21.333-21.333 21.333v0zM256 405.333c-23.467 0-42.667-19.2-42.667-42.667s19.2-42.667 42.667-42.667c23.467 0 42.667 19.2 42.667 42.667s-19.2 42.667-42.667 42.667v0zM128 554.667c-11.947 0-21.333-9.387-21.333-21.333s9.387-21.333 21.333-21.333c11.947 0 21.333 9.387 21.333 21.333s-9.387 21.333-21.333 21.333v0zM426.667 85.333c-11.947 0-21.333-9.387-21.333-21.333s9.387-21.333 21.333-21.333c11.947 0 21.333 9.387 21.333 21.333s-9.387 21.333-21.333 21.333v0zM256 234.667c-23.467 0-42.667-19.2-42.667-42.667s19.2-42.667 42.667-42.667c23.467 0 42.667 19.2 42.667 42.667s-19.2 42.667-42.667 42.667v0zM128 384c-11.947 0-21.333-9.387-21.333-21.333s9.387-21.333 21.333-21.333c11.947 0 21.333 9.387 21.333 21.333s-9.387 21.333-21.333 21.333v0z" />
<glyph unicode="&#xe939;" glyph-name="blur-on" d="M256 405.333c-23.467 0-42.667-19.2-42.667-42.667s19.2-42.667 42.667-42.667c23.467 0 42.667 19.2 42.667 42.667s-19.2 42.667-42.667 42.667v0zM256 234.667c-23.467 0-42.667-19.2-42.667-42.667s19.2-42.667 42.667-42.667c23.467 0 42.667 19.2 42.667 42.667s-19.2 42.667-42.667 42.667v0zM256 576c-23.467 0-42.667-19.2-42.667-42.667s19.2-42.667 42.667-42.667c23.467 0 42.667 19.2 42.667 42.667s-19.2 42.667-42.667 42.667v0zM128 554.667c-11.947 0-21.333-9.387-21.333-21.333s9.387-21.333 21.333-21.333c11.947 0 21.333 9.387 21.333 21.333s-9.387 21.333-21.333 21.333v0zM256 746.667c-23.467 0-42.667-19.2-42.667-42.667s19.2-42.667 42.667-42.667c23.467 0 42.667 19.2 42.667 42.667s-19.2 42.667-42.667 42.667v0zM896 512c11.947 0 21.333 9.387 21.333 21.333s-9.387 21.333-21.333 21.333c-11.947 0-21.333-9.387-21.333-21.333s9.387-21.333 21.333-21.333v0zM597.333 661.333c23.467 0 42.667 19.2 42.667 42.667s-19.2 42.667-42.667 42.667c-23.467 0-42.667-19.2-42.667-42.667s19.2-42.667 42.667-42.667v0zM597.333 810.667c11.947 0 21.333 9.387 21.333 21.333s-9.387 21.333-21.333 21.333c-11.947 0-21.333-9.387-21.333-21.333s9.387-21.333 21.333-21.333v0zM128 384c-11.947 0-21.333-9.387-21.333-21.333s9.387-21.333 21.333-21.333c11.947 0 21.333 9.387 21.333 21.333s-9.387 21.333-21.333 21.333v0zM426.667 85.333c-11.947 0-21.333-9.387-21.333-21.333s9.387-21.333 21.333-21.333c11.947 0 21.333 9.387 21.333 21.333s-9.387 21.333-21.333 21.333v0zM426.667 810.667c11.947 0 21.333 9.387 21.333 21.333s-9.387 21.333-21.333 21.333c-11.947 0-21.333-9.387-21.333-21.333s9.387-21.333 21.333-21.333v0zM426.667 661.333c23.467 0 42.667 19.2 42.667 42.667s-19.2 42.667-42.667 42.667c-23.467 0-42.667-19.2-42.667-42.667s19.2-42.667 42.667-42.667v0zM426.667 426.667c-35.413 0-64-28.587-64-64s28.587-64 64-64c35.413 0 64 28.587 64 64s-28.587 64-64 64v0zM768 405.333c-23.467 0-42.667-19.2-42.667-42.667s19.2-42.667 42.667-42.667c23.467 0 42.667 19.2 42.667 42.667s-19.2 42.667-42.667 42.667v0zM768 234.667c-23.467 0-42.667-19.2-42.667-42.667s19.2-42.667 42.667-42.667c23.467 0 42.667 19.2 42.667 42.667s-19.2 42.667-42.667 42.667v0zM768 576c-23.467 0-42.667-19.2-42.667-42.667s19.2-42.667 42.667-42.667c23.467 0 42.667 19.2 42.667 42.667s-19.2 42.667-42.667 42.667v0zM768 746.667c-23.467 0-42.667-19.2-42.667-42.667s19.2-42.667 42.667-42.667c23.467 0 42.667 19.2 42.667 42.667s-19.2 42.667-42.667 42.667v0zM896 384c-11.947 0-21.333-9.387-21.333-21.333s9.387-21.333 21.333-21.333c11.947 0 21.333 9.387 21.333 21.333s-9.387 21.333-21.333 21.333v0zM597.333 234.667c-23.467 0-42.667-19.2-42.667-42.667s19.2-42.667 42.667-42.667c23.467 0 42.667 19.2 42.667 42.667s-19.2 42.667-42.667 42.667v0zM597.333 85.333c-11.947 0-21.333-9.387-21.333-21.333s9.387-21.333 21.333-21.333c11.947 0 21.333 9.387 21.333 21.333s-9.387 21.333-21.333 21.333v0zM426.667 597.333c-35.413 0-64-28.587-64-64s28.587-64 64-64c35.413 0 64 28.587 64 64s-28.587 64-64 64v0zM426.667 234.667c-23.467 0-42.667-19.2-42.667-42.667s19.2-42.667 42.667-42.667c23.467 0 42.667 19.2 42.667 42.667s-19.2 42.667-42.667 42.667v0zM597.333 426.667c-35.413 0-64-28.587-64-64s28.587-64 64-64c35.413 0 64 28.587 64 64s-28.587 64-64 64v0zM597.333 597.333c-35.413 0-64-28.587-64-64s28.587-64 64-64c35.413 0 64 28.587 64 64s-28.587 64-64 64v0z" />
<glyph unicode="&#xe93a;" glyph-name="border-all" d="M128 832v-768h768v768h-768zM469.333 149.333h-256v256h256v-256zM469.333 490.667h-256v256h256v-256zM810.667 149.333h-256v256h256v-256zM810.667 490.667h-256v256h256v-256z" />
<glyph unicode="&#xe93b;" glyph-name="border-bottom" d="M384 490.667h-85.333v-85.333h85.333v85.333zM554.667 320h-85.333v-85.333h85.333v85.333zM384 832h-85.333v-85.333h85.333v85.333zM554.667 490.667h-85.333v-85.333h85.333v85.333zM213.333 832h-85.333v-85.333h85.333v85.333zM554.667 661.333h-85.333v-85.333h85.333v85.333zM725.333 490.667h-85.333v-85.333h85.333v85.333zM554.667 832h-85.333v-85.333h85.333v85.333zM725.333 832h-85.333v-85.333h85.333v85.333zM810.667 405.333h85.333v85.333h-85.333v-85.333zM810.667 234.667h85.333v85.333h-85.333v-85.333zM213.333 661.333h-85.333v-85.333h85.333v85.333zM810.667 832v-85.333h85.333v85.333h-85.333zM810.667 576h85.333v85.333h-85.333v-85.333zM213.333 490.667h-85.333v-85.333h85.333v85.333zM128 64h768v85.333h-768v-85.333zM213.333 320h-85.333v-85.333h85.333v85.333z" />
<glyph unicode="&#xe93c;" glyph-name="border-clear" d="M298.667 746.667h85.333v85.333h-85.333v-85.333zM298.667 405.333h85.333v85.333h-85.333v-85.333zM298.667 64h85.333v85.333h-85.333v-85.333zM469.333 234.667h85.333v85.333h-85.333v-85.333zM469.333 64h85.333v85.333h-85.333v-85.333zM128 64h85.333v85.333h-85.333v-85.333zM128 234.667h85.333v85.333h-85.333v-85.333zM128 405.333h85.333v85.333h-85.333v-85.333zM128 576h85.333v85.333h-85.333v-85.333zM128 746.667h85.333v85.333h-85.333v-85.333zM469.333 405.333h85.333v85.333h-85.333v-85.333zM810.667 234.667h85.333v85.333h-85.333v-85.333zM810.667 405.333h85.333v85.333h-85.333v-85.333zM810.667 64h85.333v85.333h-85.333v-85.333zM810.667 576h85.333v85.333h-85.333v-85.333zM469.333 576h85.333v85.333h-85.333v-85.333zM810.667 832v-85.333h85.333v85.333h-85.333zM469.333 746.667h85.333v85.333h-85.333v-85.333zM640 64h85.333v85.333h-85.333v-85.333zM640 405.333h85.333v85.333h-85.333v-85.333zM640 746.667h85.333v85.333h-85.333v-85.333z" />
<glyph unicode="&#xe93d;" glyph-name="border-color" d="M747.52 632.32l-153.6 153.6-409.6-409.6v-153.6h153.6l409.6 409.6zM1003.52 99.84v-163.84h-983.040v163.84h983.040zM715.162 907.162c15.974 15.974 41.779 15.974 57.754 0l95.846-95.846c15.974-15.974 15.974-41.779 0-57.754l-80.282-80.282-153.6 153.6z" />
<glyph unicode="&#xe93e;" glyph-name="border-horizontal" d="M128 64h85.333v85.333h-85.333v-85.333zM213.333 661.333h-85.333v-85.333h85.333v85.333zM128 234.667h85.333v85.333h-85.333v-85.333zM298.667 64h85.333v85.333h-85.333v-85.333zM213.333 832h-85.333v-85.333h85.333v85.333zM384 832h-85.333v-85.333h85.333v85.333zM725.333 832h-85.333v-85.333h85.333v85.333zM554.667 661.333h-85.333v-85.333h85.333v85.333zM554.667 832h-85.333v-85.333h85.333v85.333zM810.667 234.667h85.333v85.333h-85.333v-85.333zM469.333 64h85.333v85.333h-85.333v-85.333zM128 405.333h768v85.333h-768v-85.333zM810.667 832v-85.333h85.333v85.333h-85.333zM810.667 576h85.333v85.333h-85.333v-85.333zM469.333 234.667h85.333v85.333h-85.333v-85.333zM640 64h85.333v85.333h-85.333v-85.333zM810.667 64h85.333v85.333h-85.333v-85.333z" />
<glyph unicode="&#xe93f;" glyph-name="border-inner" d="M128 64h85.333v85.333h-85.333v-85.333zM298.667 64h85.333v85.333h-85.333v-85.333zM213.333 661.333h-85.333v-85.333h85.333v85.333zM128 234.667h85.333v85.333h-85.333v-85.333zM384 832h-85.333v-85.333h85.333v85.333zM213.333 832h-85.333v-85.333h85.333v85.333zM725.333 832h-85.333v-85.333h85.333v85.333zM810.667 576h85.333v85.333h-85.333v-85.333zM810.667 832v-85.333h85.333v85.333h-85.333zM640 64h85.333v85.333h-85.333v-85.333zM554.667 832h-85.333v-341.333h-341.333v-85.333h341.333v-341.333h85.333v341.333h341.333v85.333h-341.333v341.333zM810.667 64h85.333v85.333h-85.333v-85.333zM810.667 234.667h85.333v85.333h-85.333v-85.333z" />
<glyph unicode="&#xe940;" glyph-name="border-left" d="M469.333 64h85.333v85.333h-85.333v-85.333zM469.333 234.667h85.333v85.333h-85.333v-85.333zM469.333 746.667h85.333v85.333h-85.333v-85.333zM469.333 576h85.333v85.333h-85.333v-85.333zM469.333 405.333h85.333v85.333h-85.333v-85.333zM298.667 64h85.333v85.333h-85.333v-85.333zM298.667 746.667h85.333v85.333h-85.333v-85.333zM298.667 405.333h85.333v85.333h-85.333v-85.333zM128 64h85.333v768h-85.333v-768zM810.667 576h85.333v85.333h-85.333v-85.333zM640 64h85.333v85.333h-85.333v-85.333zM810.667 234.667h85.333v85.333h-85.333v-85.333zM810.667 832v-85.333h85.333v85.333h-85.333zM810.667 405.333h85.333v85.333h-85.333v-85.333zM810.667 64h85.333v85.333h-85.333v-85.333zM640 405.333h85.333v85.333h-85.333v-85.333zM640 746.667h85.333v85.333h-85.333v-85.333z" />
<glyph unicode="&#xe941;" glyph-name="border-outer" d="M554.667 661.333h-85.333v-85.333h85.333v85.333zM554.667 490.667h-85.333v-85.333h85.333v85.333zM725.333 490.667h-85.333v-85.333h85.333v85.333zM128 832v-768h768v768h-768zM810.667 149.333h-597.333v597.333h597.333v-597.333zM554.667 320h-85.333v-85.333h85.333v85.333zM384 490.667h-85.333v-85.333h85.333v85.333z" />
<glyph unicode="&#xe942;" glyph-name="border-right" d="M298.667 64h85.333v85.333h-85.333v-85.333zM128 746.667h85.333v85.333h-85.333v-85.333zM298.667 746.667h85.333v85.333h-85.333v-85.333zM298.667 405.333h85.333v85.333h-85.333v-85.333zM128 64h85.333v85.333h-85.333v-85.333zM469.333 64h85.333v85.333h-85.333v-85.333zM128 405.333h85.333v85.333h-85.333v-85.333zM128 234.667h85.333v85.333h-85.333v-85.333zM128 576h85.333v85.333h-85.333v-85.333zM469.333 234.667h85.333v85.333h-85.333v-85.333zM640 405.333h85.333v85.333h-85.333v-85.333zM810.667 832v-768h85.333v768h-85.333zM640 64h85.333v85.333h-85.333v-85.333zM640 746.667h85.333v85.333h-85.333v-85.333zM469.333 405.333h85.333v85.333h-85.333v-85.333zM469.333 746.667h85.333v85.333h-85.333v-85.333zM469.333 576h85.333v85.333h-85.333v-85.333z" />
<glyph unicode="&#xe943;" glyph-name="border-style" d="M640 64h85.333v85.333h-85.333v-85.333zM810.667 64h85.333v85.333h-85.333v-85.333zM298.667 64h85.333v85.333h-85.333v-85.333zM469.333 64h85.333v85.333h-85.333v-85.333zM810.667 234.667h85.333v85.333h-85.333v-85.333zM810.667 405.333h85.333v85.333h-85.333v-85.333zM128 832v-768h85.333v682.667h682.667v85.333h-768zM810.667 576h85.333v85.333h-85.333v-85.333z" />
<glyph unicode="&#xe944;" glyph-name="border-top" d="M298.667 64h85.333v85.333h-85.333v-85.333zM298.667 405.333h85.333v85.333h-85.333v-85.333zM469.333 405.333h85.333v85.333h-85.333v-85.333zM469.333 64h85.333v85.333h-85.333v-85.333zM128 234.667h85.333v85.333h-85.333v-85.333zM128 64h85.333v85.333h-85.333v-85.333zM128 405.333h85.333v85.333h-85.333v-85.333zM128 576h85.333v85.333h-85.333v-85.333zM469.333 234.667h85.333v85.333h-85.333v-85.333zM810.667 576h85.333v85.333h-85.333v-85.333zM810.667 405.333h85.333v85.333h-85.333v-85.333zM128 832v-85.333h768v85.333h-768zM810.667 234.667h85.333v85.333h-85.333v-85.333zM640 64h85.333v85.333h-85.333v-85.333zM469.333 576h85.333v85.333h-85.333v-85.333zM810.667 64h85.333v85.333h-85.333v-85.333zM640 405.333h85.333v85.333h-85.333v-85.333z" />
<glyph unicode="&#xe945;" glyph-name="border-vertical" d="M128 576h85.333v85.333h-85.333v-85.333zM128 746.667h85.333v85.333h-85.333v-85.333zM298.667 64h85.333v85.333h-85.333v-85.333zM298.667 405.333h85.333v85.333h-85.333v-85.333zM128 405.333h85.333v85.333h-85.333v-85.333zM128 64h85.333v85.333h-85.333v-85.333zM128 234.667h85.333v85.333h-85.333v-85.333zM298.667 746.667h85.333v85.333h-85.333v-85.333zM810.667 234.667h85.333v85.333h-85.333v-85.333zM469.333 64h85.333v768h-85.333v-768zM810.667 64h85.333v85.333h-85.333v-85.333zM810.667 405.333h85.333v85.333h-85.333v-85.333zM810.667 832v-85.333h85.333v85.333h-85.333zM810.667 576h85.333v85.333h-85.333v-85.333zM640 746.667h85.333v85.333h-85.333v-85.333zM640 64h85.333v85.333h-85.333v-85.333zM640 405.333h85.333v85.333h-85.333v-85.333z" />
<glyph unicode="&#xe946;" glyph-name="brightness-1" d="M938.667 448c0-235.641-191.025-426.667-426.667-426.667s-426.667 191.025-426.667 426.667c0 235.641 191.025 426.667 426.667 426.667s426.667-191.025 426.667-426.667z" />
<glyph unicode="&#xe947;" glyph-name="brightness-2" d="M426.667 874.667c-77.653 0-150.613-21.333-213.333-57.6 127.573-73.813 213.333-211.2 213.333-369.067s-85.76-295.253-213.333-369.067c62.72-36.267 135.68-57.6 213.333-57.6 235.52 0 426.667 191.147 426.667 426.667s-191.147 426.667-426.667 426.667v0z" />
<glyph unicode="&#xe948;" glyph-name="brightness-3" d="M384 874.667c-44.8 0-87.467-6.827-128-19.627 173.227-54.187 298.667-215.893 298.667-407.040s-125.44-352.853-298.667-407.040c40.533-12.8 83.2-19.627 128-19.627 235.52 0 426.667 191.147 426.667 426.667s-191.147 426.667-426.667 426.667v0z" />
<glyph unicode="&#xe949;" glyph-name="brightness-4" d="M853.333 589.227v200.107h-200.107l-141.227 141.227-141.227-141.227h-200.107v-200.107l-141.227-141.227 141.227-141.227v-200.107h200.107l141.227-141.227 141.227 141.227h200.107v200.107l141.227 141.227-141.227 141.227zM512 192c-37.973 0-74.24 8.533-106.667 23.467 87.893 40.533 149.333 129.28 149.333 232.533s-61.44 192-149.333 232.533c32.427 14.933 68.693 23.467 106.667 23.467 141.227 0 256-114.773 256-256s-114.773-256-256-256v0z" />
<glyph unicode="&#xe94a;" glyph-name="brightness-5" d="M853.333 306.773l141.227 141.227-141.227 141.227v200.107h-200.107l-141.227 141.227-141.227-141.227h-200.107v-200.107l-141.227-141.227 141.227-141.227v-200.107h200.107l141.227-141.227 141.227 141.227h200.107v200.107zM512 192c-141.227 0-256 114.773-256 256s114.773 256 256 256c141.227 0 256-114.773 256-256s-114.773-256-256-256v0z" />
<glyph unicode="&#xe94b;" glyph-name="brightness-6" d="M853.333 306.773l141.227 141.227-141.227 141.227v200.107h-200.107l-141.227 141.227-141.227-141.227h-200.107v-200.107l-141.227-141.227 141.227-141.227v-200.107h200.107l141.227-141.227 141.227 141.227h200.107v200.107zM512 192v512c141.227 0 256-114.773 256-256s-114.773-256-256-256v0z" />
<glyph unicode="&#xe94c;" glyph-name="brightness-7" d="M853.333 589.227v200.107h-200.107l-141.227 141.227-141.227-141.227h-200.107v-200.107l-141.227-141.227 141.227-141.227v-200.107h200.107l141.227-141.227 141.227 141.227h200.107v200.107l141.227 141.227-141.227 141.227zM512 192c-141.227 0-256 114.773-256 256s114.773 256 256 256c141.227 0 256-114.773 256-256s-114.773-256-256-256v0zM512 618.667c-94.293 0-170.667-76.373-170.667-170.667s76.373-170.667 170.667-170.667c94.293 0 170.667 76.373 170.667 170.667s-76.373 170.667-170.667 170.667v0z" />
<glyph unicode="&#xe94d;" glyph-name="brightness-auto" d="M462.933 420.267h98.133l-49.067 155.733-49.067-155.733zM853.333 589.227v200.107h-200.107l-141.227 141.227-141.227-141.227h-200.107v-200.107l-141.227-141.227 141.227-141.227v-200.107h200.107l141.227-141.227 141.227 141.227h200.107v200.107l141.227 141.227-141.227 141.227zM610.133 277.333l-29.867 85.333h-136.533l-29.867-85.333h-81.067l136.533 384h85.333l136.533-384h-81.067z" />
<glyph unicode="&#xe94e;" glyph-name="brightness-high" d="M853.333 589.227v200.107h-200.107l-141.227 141.227-141.227-141.227h-200.107v-200.107l-141.227-141.227 141.227-141.227v-200.107h200.107l141.227-141.227 141.227 141.227h200.107v200.107l141.227 141.227-141.227 141.227zM512 192c-141.227 0-256 114.773-256 256s114.773 256 256 256c141.227 0 256-114.773 256-256s-114.773-256-256-256v0zM512 618.667c-94.293 0-170.667-76.373-170.667-170.667s76.373-170.667 170.667-170.667c94.293 0 170.667 76.373 170.667 170.667s-76.373 170.667-170.667 170.667v0z" />
<glyph unicode="&#xe94f;" glyph-name="brightness-low" d="M853.333 306.773l141.227 141.227-141.227 141.227v200.107h-200.107l-141.227 141.227-141.227-141.227h-200.107v-200.107l-141.227-141.227 141.227-141.227v-200.107h200.107l141.227-141.227 141.227 141.227h200.107v200.107zM512 192c-141.227 0-256 114.773-256 256s114.773 256 256 256c141.227 0 256-114.773 256-256s-114.773-256-256-256v0z" />
<glyph unicode="&#xe950;" glyph-name="brightness-medium" d="M853.333 306.773l141.227 141.227-141.227 141.227v200.107h-200.107l-141.227 141.227-141.227-141.227h-200.107v-200.107l-141.227-141.227 141.227-141.227v-200.107h200.107l141.227-141.227 141.227 141.227h200.107v200.107zM512 192v512c141.227 0 256-114.773 256-256s-114.773-256-256-256v0z" />
<glyph unicode="&#xe951;" glyph-name="broken-image" d="M896 746.667v-281.173l-128 128.427-170.667-171.093-170.667 170.667-170.667-170.667-128 128.427v195.413c0 46.933 38.4 85.333 85.333 85.333h597.333c46.933 0 85.333-38.4 85.333-85.333v0zM768 472.747l128-128.427v-194.987c0-46.933-38.4-85.333-85.333-85.333h-597.333c-46.933 0-85.333 38.4-85.333 85.333v280.747l128-127.573 170.667 170.667 170.667-170.667 170.667 170.24z" />
<glyph unicode="&#xe952;" glyph-name="brush" d="M298.667 362.667c-70.827 0-128-57.173-128-128 0-55.893-49.493-85.333-85.333-85.333 39.253-52.053 106.24-85.333 170.667-85.333 94.293 0 170.667 76.373 170.667 170.667 0 70.827-57.173 128-128 128v0zM883.627 762.453l-57.173 57.173c-16.64 16.64-43.52 16.64-60.16 0l-382.293-382.293 117.333-117.333 382.293 382.293c16.64 16.64 16.64 43.52 0 60.16v0z" />
<glyph unicode="&#xe953;" glyph-name="business-center" d="M426.667 277.333v42.667h-298.24l-0.427-170.667c0-47.36 37.973-85.333 85.333-85.333h597.333c47.36 0 85.333 37.973 85.333 85.333v170.667h-298.667v-42.667h-170.667zM853.333 661.333h-171.093v85.333l-85.333 85.333h-170.667l-85.333-85.333v-85.333h-170.24c-46.933 0-85.333-38.4-85.333-85.333v-128c0-47.36 37.973-85.333 85.333-85.333h256v85.333h170.667v-85.333h256c46.933 0 85.333 38.4 85.333 85.333v128c0 46.933-38.4 85.333-85.333 85.333v0zM597.333 661.333h-170.667v85.333h170.667v-85.333z" />
<glyph unicode="&#xe954;" glyph-name="cake" d="M512 704c47.36 0 85.333 38.4 85.333 85.333 0 16.213-4.267 31.147-12.373 43.947l-72.96 126.72-72.96-126.72c-8.107-12.8-12.373-27.733-12.373-43.947 0-46.933 38.4-85.333 85.333-85.333v0zM708.267 277.76l-45.653 45.653-46.080-45.653c-55.467-55.467-152.747-55.893-208.64 0l-45.653 45.653-46.507-45.653c-27.733-27.733-64.853-43.093-104.107-43.093-31.147 0-59.733 9.813-83.627 26.027v-196.693c0-23.467 19.2-42.667 42.667-42.667h682.667c23.467 0 42.667 19.2 42.667 42.667v196.693c-23.893-16.213-52.48-26.027-83.627-26.027-39.253 0-76.373 15.36-104.107 43.093v0zM768 576h-213.333v85.333h-85.333v-85.333h-213.333c-70.827 0-128-57.173-128-128v-65.707c0-46.080 37.547-83.627 83.627-83.627 22.187 0 43.52 8.533 58.88 24.32l91.307 90.88 90.88-90.88c31.573-31.573 86.613-31.573 118.187 0l91.307 90.88 90.88-90.88c15.787-15.787 36.693-24.32 58.88-24.32 46.080 0 83.629 37.547 83.629 83.627v65.707c0.424 70.827-56.749 128-127.576 128v0z" />
<glyph unicode="&#xe955;" glyph-name="camera" d="M401.067 512l203.52 352.427c-29.867 6.4-60.587 10.24-92.587 10.24-102.4 0-196.267-36.267-269.653-96l156.16-270.933 2.56 4.267zM919.040 576c-39.253 124.587-134.4 224.427-256 270.507l-156.16-270.507h412.16zM930.133 533.333h-319.573l12.373-21.333 203.093-352c69.973 75.947 112.64 176.64 112.64 288 0 29.44-2.987 57.6-8.533 85.333v0zM364.373 448l-166.4 288c-69.547-75.947-112.64-176.64-112.64-288 0-29.44 2.987-57.6 8.533-85.333h319.573l-49.067 85.333zM104.96 320c39.253-124.587 134.4-224.427 256-270.507l156.16 270.507h-412.16zM585.813 320l-166.4-288.427c29.867-6.4 60.587-10.24 92.587-10.24 102.4 0 196.267 36.267 269.653 96l-156.16 270.933-39.68-68.267z" />
<glyph unicode="&#xe956;" glyph-name="camera-alt" d="M640 874.667l78.080-85.333h135.253c46.933 0 85.333-38.4 85.333-85.333v-512c0-46.933-38.4-85.333-85.333-85.333h-682.667c-46.933 0-85.333 38.4-85.333 85.333v512c0 46.933 38.4 85.333 85.333 85.333h135.253l78.080 85.333h256zM512 661.333c-117.76 0-213.333-95.573-213.333-213.333s95.573-213.333 213.333-213.333c117.76 0 213.333 95.573 213.333 213.333s-95.573 213.333-213.333 213.333zM512 584.533c75.405 0 136.533-61.128 136.533-136.533s-61.128-136.533-136.533-136.533c-75.405 0-136.533 61.128-136.533 136.533s61.128 136.533 136.533 136.533z" />
<glyph unicode="&#xe957;" glyph-name="camera-front" d="M426.667 106.667h-213.333v-85.333h213.333v-85.333l128 128-128 128v-85.333zM597.333 106.667v-85.333h213.333v85.333h-213.333zM512 618.667c46.933 0 85.333 38.4 85.333 85.333s-38.4 85.333-85.333 85.333c-46.933 0-84.907-38.4-84.907-85.333s37.973-85.333 84.907-85.333v0zM725.333 960h-426.667c-46.933 0-85.333-38.4-85.333-85.333v-597.333c0-46.933 38.4-85.333 85.333-85.333h426.667c46.933 0 85.333 38.4 85.333 85.333v597.333c0 46.933-38.4 85.333-85.333 85.333v0zM298.667 874.667h426.667v-448c0 71.253-142.080 106.667-213.333 106.667s-213.333-35.413-213.333-106.667v448z" />
<glyph unicode="&#xe958;" glyph-name="camera-rear" d="M426.667 106.667h-213.333v-85.333h213.333v-85.333l128 128-128 128v-85.333zM597.333 106.667v-85.333h213.333v85.333h-213.333zM725.333 960h-426.667c-46.933 0-85.333-38.4-85.333-85.333v-597.333c0-46.933 38.4-85.333 85.333-85.333h426.667c46.933 0 85.333 38.4 85.333 85.333v597.333c0 46.933-38.4 85.333-85.333 85.333v0zM512 704c-47.36 0-85.333 38.4-85.333 85.333s37.973 85.333 84.907 85.333c46.933 0 85.333-38.4 85.333-85.333 0.427-46.933-37.973-85.333-84.907-85.333v0z" />
<glyph unicode="&#xe959;" glyph-name="camera-roll" d="M597.333 746.667c0 46.933-38.4 85.333-85.333 85.333h-42.667v42.667c0 23.467-19.2 42.667-42.667 42.667h-170.667c-23.467 0-42.667-19.2-42.667-42.667v-42.667h-42.667c-46.933 0-85.333-38.4-85.333-85.333v-640c0-46.933 38.4-85.333 85.333-85.333h341.333c46.933 0 85.333 38.4 85.333 85.333h341.333v640h-341.333zM512 192h-85.333v85.333h85.333v-85.333zM512 576h-85.333v85.333h85.333v-85.333zM682.667 192h-85.333v85.333h85.333v-85.333zM682.667 576h-85.333v85.333h85.333v-85.333zM853.333 192h-85.333v85.333h85.333v-85.333zM853.333 576h-85.333v85.333h85.333v-85.333z" />
<glyph unicode="&#xe95a;" glyph-name="cancel" d="M512 874.667c-235.947 0-426.667-190.72-426.667-426.667s190.72-426.667 426.667-426.667c235.947 0 426.667 190.72 426.667 426.667s-190.72 426.667-426.667 426.667v0zM725.333 294.827l-60.16-60.16-153.173 153.173-153.173-153.173-60.16 60.16 153.173 153.173-153.173 153.173 60.16 60.16 153.173-153.173 153.173 153.173 60.16-60.16-153.173-153.173 153.173-153.173z" />
<glyph unicode="&#xe95b;" glyph-name="casino" d="M810.667 832h-597.333c-46.933 0-85.333-38.4-85.333-85.333v-597.333c0-46.933 38.4-85.333 85.333-85.333h597.333c46.933 0 85.333 38.4 85.333 85.333v597.333c0 46.933-38.4 85.333-85.333 85.333v0zM320 192c-35.413 0-64 28.587-64 64s28.587 64 64 64c35.413 0 64-28.587 64-64s-28.587-64-64-64v0zM320 576c-35.413 0-64 28.587-64 64s28.587 64 64 64c35.413 0 64-28.587 64-64s-28.587-64-64-64v0zM512 384c-35.413 0-64 28.587-64 64s28.587 64 64 64c35.413 0 64-28.587 64-64s-28.587-64-64-64v0zM704 192c-35.413 0-64 28.587-64 64s28.587 64 64 64c35.413 0 64-28.587 64-64s-28.587-64-64-64v0zM704 576c-35.413 0-64 28.587-64 64s28.587 64 64 64c35.413 0 64-28.587 64-64s-28.587-64-64-64v0z" />
<glyph unicode="&#xe95c;" glyph-name="cast" d="M896 832h-768c-46.933 0-85.333-38.4-85.333-85.333v-128h85.333v128h768v-597.333h-298.667v-85.333h298.667c46.933 0 85.333 38.4 85.333 85.333v597.333c0 46.933-38.4 85.333-85.333 85.333v0zM42.667 192v-128h128c0 70.827-57.173 128-128 128v0zM42.667 362.667v-85.333c117.76 0 213.333-95.573 213.333-213.333h85.333c0 165.12-133.547 298.667-298.667 298.667v0zM42.667 533.333v-85.333c212.053 0 384-171.947 384-384h85.333c0 259.413-210.347 469.333-469.333 469.333v0z" />
<glyph unicode="&#xe95d;" glyph-name="cast-connected" d="M42.667 192v-128h128c0 70.827-57.173 128-128 128v0zM42.667 362.667v-85.333c117.76 0 213.333-95.573 213.333-213.333h85.333c0 165.12-133.547 298.667-298.667 298.667v0zM810.667 661.333h-597.333v-69.547c168.96-54.613 302.507-188.16 357.12-357.12h240.213v426.667zM42.667 533.333v-85.333c212.053 0 384-171.947 384-384h85.333c0 259.413-210.347 469.333-469.333 469.333v0zM896 832h-768c-46.933 0-85.333-38.4-85.333-85.333v-128h85.333v128h768v-597.333h-298.667v-85.333h298.667c46.933 0 85.333 38.4 85.333 85.333v597.333c0 46.933-38.4 85.333-85.333 85.333v0z" />
<glyph unicode="&#xe95e;" glyph-name="center-focus-strong" d="M512 618.667c-94.293 0-170.667-76.373-170.667-170.667s76.373-170.667 170.667-170.667c94.293 0 170.667 76.373 170.667 170.667s-76.373 170.667-170.667 170.667v0zM213.333 320h-85.333v-170.667c0-46.933 38.4-85.333 85.333-85.333h170.667v85.333h-170.667v170.667zM213.333 746.667h170.667v85.333h-170.667c-46.933 0-85.333-38.4-85.333-85.333v-170.667h85.333v170.667zM810.667 832h-170.667v-85.333h170.667v-170.667h85.333v170.667c0 46.933-38.4 85.333-85.333 85.333v0zM810.667 149.333h-170.667v-85.333h170.667c46.933 0 85.333 38.4 85.333 85.333v170.667h-85.333v-170.667z" />
<glyph unicode="&#xe95f;" glyph-name="center-focus-weak" d="M213.333 320h-85.333v-170.667c0-46.933 38.4-85.333 85.333-85.333h170.667v85.333h-170.667v170.667zM213.333 746.667h170.667v85.333h-170.667c-46.933 0-85.333-38.4-85.333-85.333v-170.667h85.333v170.667zM810.667 832h-170.667v-85.333h170.667v-170.667h85.333v170.667c0 46.933-38.4 85.333-85.333 85.333v0zM810.667 149.333h-170.667v-85.333h170.667c46.933 0 85.333 38.4 85.333 85.333v170.667h-85.333v-170.667zM512 618.667c-94.293 0-170.667-76.373-170.667-170.667s76.373-170.667 170.667-170.667c94.293 0 170.667 76.373 170.667 170.667s-76.373 170.667-170.667 170.667v0zM512 362.667c-46.933 0-85.333 38.4-85.333 85.333s38.4 85.333 85.333 85.333c46.933 0 85.333-38.4 85.333-85.333s-38.4-85.333-85.333-85.333v0z" />
<glyph unicode="&#xe960;" glyph-name="check" d="M384 270.080l-177.92 177.92-60.587-60.16 238.507-238.507 512 512-60.16 60.16z" />
<glyph unicode="&#xe961;" glyph-name="check-box" d="M810.667 832h-597.333c-47.36 0-85.333-38.4-85.333-85.333v-597.333c0-46.933 37.973-85.333 85.333-85.333h597.333c47.36 0 85.333 38.4 85.333 85.333v597.333c0 46.933-37.973 85.333-85.333 85.333v0zM426.667 234.667l-213.333 213.333 60.16 60.16 153.173-152.747 323.84 323.84 60.16-60.587-384-384z" />
<glyph unicode="&#xe962;" glyph-name="check-box-outline-blank" d="M810.667 746.667v-597.333h-597.333v597.333h597.333zM810.667 832h-597.333c-46.933 0-85.333-38.4-85.333-85.333v-597.333c0-46.933 38.4-85.333 85.333-85.333h597.333c46.933 0 85.333 38.4 85.333 85.333v597.333c0 46.933-38.4 85.333-85.333 85.333v0z" />
<glyph unicode="&#xe963;" glyph-name="chevron-left" d="M657.493 643.84l-60.16 60.16-256-256 256-256 60.16 60.16-195.413 195.84z" />
<glyph unicode="&#xe964;" glyph-name="chevron-right" d="M426.667 704l-60.16-60.16 195.413-195.84-195.413-195.84 60.16-60.16 256 256z" />
<glyph unicode="&#xe965;" glyph-name="child-care" d="M512 832c97.28 0 186.027-36.267 253.44-96.427 38.827-34.56 70.827-76.373 93.44-124.16 61.867-18.347 109.227-70.827 119.893-135.253 1.707-8.96 2.56-18.347 2.56-28.16s-0.853-19.2-2.56-28.16c-10.667-64.853-58.027-116.907-119.467-135.253-22.187-46.933-54.187-89.173-92.587-123.307-67.84-60.587-157.013-97.28-254.72-97.28s-186.88 36.693-254.293 97.28c-38.4 34.133-70.4 75.947-92.587 123.307-61.867 18.347-109.227 70.827-119.893 135.253-1.707 8.96-2.56 18.347-2.56 28.16s0.853 19.2 2.56 28.16c10.667 64.853 58.027 116.907 119.893 135.253 22.187 47.36 54.187 89.6 93.44 124.16 67.413 60.16 156.16 96.427 253.44 96.427zM512 746.667c-104.533 0-196.267-53.76-249.6-135.253-15.787-24.32-28.16-50.773-36.693-79.36-4.267 0.427-8.107 1.28-12.373 1.28-46.933 0-85.333-38.4-85.333-85.333s38.4-85.333 85.333-85.333c4.267 0 8.107 0.853 12.373 1.28 8.533-28.587 20.907-55.040 36.693-79.36 53.333-81.493 145.067-135.253 249.6-135.253s196.267 53.76 249.6 135.253c15.787 24.32 28.16 50.773 36.693 79.36 4.267-0.427 8.107-1.28 12.373-1.28 46.933 0 85.333 38.4 85.333 85.333s-38.4 85.333-85.333 85.333c-4.267 0-8.107-0.853-12.373-1.28-8.533 28.587-20.907 55.040-36.693 79.36-53.333 81.493-145.067 135.253-249.6 135.253zM704 362.667c-32.427-75.52-106.24-128-192-128s-159.573 52.48-192 128zM618.667 565.333c29.455 0 53.333-23.878 53.333-53.333s-23.878-53.333-53.333-53.333c-29.455 0-53.333 23.878-53.333 53.333s23.878 53.333 53.333 53.333zM405.333 565.333c29.455 0 53.333-23.878 53.333-53.333s-23.878-53.333-53.333-53.333c-29.455 0-53.333 23.878-53.333 53.333s23.878 53.333 53.333 53.333z" />
<glyph unicode="&#xe966;" glyph-name="child-friendly" d="M554.667 874.667v-341.333h341.333c0 188.587-152.747 341.333-341.333 341.333v0zM824.32 282.027c44.8 57.6 71.68 130.133 71.68 208.64h-621.227l-40.533 85.333h-148.907v-85.333h94.72c-175.787 469.333 80.64-173.653 90.453-188.587-46.933-25.173-78.507-74.667-78.507-131.413 0-82.347 66.987-149.333 149.333-149.333 75.093 0 137.387 55.467 147.627 128h88.747c10.24-72.533 72.533-128 147.627-128 82.347 0 149.333 66.987 149.333 149.333 0 44.373-19.627 84.053-50.347 111.36v0zM341.333 106.667c-35.413 0-64 28.587-64 64s28.587 64 64 64c35.413 0 64-28.587 64-64s-28.587-64-64-64v0zM725.333 106.667c-35.413 0-64 28.587-64 64s28.587 64 64 64c35.413 0 64-28.587 64-64s-28.587-64-64-64v0z" />
<glyph unicode="&#xe967;" glyph-name="clear" d="M810.667 686.507l-60.16 60.16-238.507-238.507-238.507 238.507-60.16-60.16 238.507-238.507-238.507-238.507 60.16-60.16 238.507 238.507 238.507-238.507 60.16 60.16-238.507 238.507z" />
<glyph unicode="&#xe968;" glyph-name="close" d="M810.667 686.507l-60.16 60.16-238.507-238.507-238.507 238.507-60.16-60.16 238.507-238.507-238.507-238.507 60.16-60.16 238.507 238.507 238.507-238.507 60.16 60.16-238.507 238.507z" />
<glyph unicode="&#xe969;" glyph-name="cloud" d="M825.6 531.627c-29.013 147.2-158.293 257.707-313.6 257.707-123.307 0-230.4-69.973-283.733-172.373-128.427-13.653-228.267-122.453-228.267-254.293 0-141.227 114.773-256 256-256h554.667c117.76 0 213.333 95.573 213.333 213.333 0 112.64-87.467 203.947-198.4 211.627v0z" />
<glyph unicode="&#xe96a;" glyph-name="cloud-circle" d="M512 874.667c-235.52 0-426.667-191.147-426.667-426.667s191.147-426.667 426.667-426.667c235.52 0 426.667 191.147 426.667 426.667s-191.147 426.667-426.667 426.667v0zM704 277.333h-362.667c-70.827 0-128 57.173-128 128s57.173 128 128 128l5.973-0.427c18.773 73.813 84.907 128.427 164.693 128.427 94.293 0 170.667-76.373 170.667-170.667h21.333c58.88 0 106.667-47.787 106.667-106.667s-47.787-106.667-106.667-106.667v0z" />
<glyph unicode="&#xe96b;" glyph-name="cloud-done" d="M825.6 531.627c-29.013 147.2-158.293 257.707-313.6 257.707-123.307 0-230.4-69.973-283.733-172.373-128.427-13.653-228.267-122.453-228.267-254.293 0-141.227 114.773-256 256-256h554.667c117.76 0 213.333 95.573 213.333 213.333 0 112.64-87.467 203.947-198.4 211.627v0zM426.667 234.667l-149.333 149.333 60.16 60.16 89.173-88.747 221.013 220.587 60.16-60.16-281.173-281.173z" />
<glyph unicode="&#xe96c;" glyph-name="cloud-download" d="M825.6 531.627c-29.013 147.2-158.293 257.707-313.6 257.707-123.307 0-230.4-69.973-283.733-172.373-128.427-13.653-228.267-122.453-228.267-254.293 0-141.227 114.773-256 256-256h554.667c117.76 0 213.333 95.573 213.333 213.333 0 112.64-87.467 203.947-198.4 211.627v0zM725.333 405.333l-213.333-213.333-213.333 213.333h128v170.667h170.667v-170.667h128z" />
<glyph unicode="&#xe96d;" glyph-name="cloud-off" d="M825.6 531.627c-29.013 147.2-158.293 257.707-313.6 257.707-63.147 0-121.6-18.347-171.093-49.92l62.293-62.293c32.427 17.067 69.547 26.88 108.8 26.88 129.707 0 234.667-104.96 234.667-234.667v-21.333h64c70.827 0 128-57.173 128-128 0-48.213-27.307-90.027-66.56-111.787l61.867-61.867c54.187 38.827 90.027 101.973 90.027 173.653 0 112.64-87.467 203.947-198.4 211.627v0zM128 735.147l117.333-116.907c-136.107-5.973-245.333-117.76-245.333-255.573 0-141.227 114.773-256 256-256h500.48l85.333-85.333 54.187 54.187-713.813 713.813-54.187-54.187zM329.813 533.333l341.333-341.333h-415.147c-94.293 0-170.667 76.373-170.667 170.667s76.373 170.667 170.667 170.667h73.813z" />
<glyph unicode="&#xe96e;" glyph-name="cloud-queue" d="M825.6 531.627c-29.013 147.2-158.293 257.707-313.6 257.707-123.307 0-230.4-69.973-283.733-172.373-128.427-13.653-228.267-122.453-228.267-254.293 0-141.227 114.773-256 256-256h554.667c117.76 0 213.333 95.573 213.333 213.333 0 112.64-87.467 203.947-198.4 211.627v0zM810.667 192h-554.667c-94.293 0-170.667 76.373-170.667 170.667s76.373 170.667 170.667 170.667h30.293c28.16 98.56 118.187 170.667 225.707 170.667 129.707 0 234.667-104.96 234.667-234.667v-21.333h64c70.827 0 128-57.173 128-128s-57.173-128-128-128v0z" />
<glyph unicode="&#xe96f;" glyph-name="cloud-upload" d="M825.6 531.627c-29.013 147.2-158.293 257.707-313.6 257.707-123.307 0-230.4-69.973-283.733-172.373-128.427-13.653-228.267-122.453-228.267-254.293 0-141.227 114.773-256 256-256h554.667c117.76 0 213.333 95.573 213.333 213.333 0 112.64-87.467 203.947-198.4 211.627v0zM597.333 405.333v-170.667h-170.667v170.667h-128l213.333 213.333 213.333-213.333h-128z" />
<glyph unicode="&#xe970;" glyph-name="collections" d="M938.667 277.333v512c0 46.933-38.4 85.333-85.333 85.333h-512c-46.933 0-85.333-38.4-85.333-85.333v-512c0-46.933 38.4-85.333 85.333-85.333h512c46.933 0 85.333 38.4 85.333 85.333v0zM469.333 448l86.613-115.627 126.72 158.293 170.667-213.333h-512l128 170.667zM85.333 704v-597.333c0-46.933 38.4-85.333 85.333-85.333h597.333v85.333h-597.333v597.333h-85.333z" />
<glyph unicode="&#xe971;" glyph-name="collections-bookmark" d="M170.667 704v-597.333h597.333v-85.333h-597.333c-46.933 0-85.333 38.4-85.333 85.333v597.333h85.333zM853.333 874.667c46.933 0 85.333-38.4 85.333-85.333v-512c0-46.933-38.4-85.333-85.333-85.333h-512c-46.933 0-85.333 38.4-85.333 85.333v512c0 46.933 38.4 85.333 85.333 85.333zM853.333 789.333h-213.333v-341.333l106.667 64 106.667-64v341.333z" />
<glyph unicode="&#xe972;" glyph-name="color-lens" d="M512 832c-212.053 0-384-171.947-384-384s171.947-384 384-384c35.413 0 64 28.587 64 64 0 16.64-6.4 31.573-16.64 43.093-9.813 11.093-16.213 26.027-16.213 42.24 0 35.413 28.587 64 64 64h75.52c117.76 0 213.333 95.573 213.333 213.333 0 188.587-171.947 341.333-384 341.333v0zM277.333 448c-35.413 0-64 28.587-64 64s28.587 64 64 64c35.413 0 64-28.587 64-64s-28.587-64-64-64v0zM405.333 618.667c-35.413 0-64 28.587-64 64s28.587 64 64 64c35.413 0 64-28.587 64-64s-28.587-64-64-64v0zM618.667 618.667c-35.413 0-64 28.587-64 64s28.587 64 64 64c35.413 0 64-28.587 64-64s-28.587-64-64-64v0zM746.667 448c-35.413 0-64 28.587-64 64s28.587 64 64 64c35.413 0 64-28.587 64-64s-28.587-64-64-64v0z" />
<glyph unicode="&#xe973;" glyph-name="colorize" d="M883.627 719.787l-99.84 99.84c-16.64 16.64-43.52 16.64-60.16 0l-133.12-133.12-82.347 81.493-60.16-60.16 60.587-60.587-380.587-380.587v-202.667h202.667l380.587 380.587 60.587-60.587 60.16 60.16-81.92 81.92 133.12 133.12c17.067 17.067 17.067 43.947 0.427 60.587v0zM295.253 149.333l-81.92 81.92 343.893 343.893 81.92-81.92-343.893-343.893z" />
<glyph unicode="&#xe974;" glyph-name="compare" d="M426.667 832h-213.333c-46.933 0-85.333-38.4-85.333-85.333v-597.333c0-46.933 38.4-85.333 85.333-85.333h213.333v-85.333h85.333v938.667h-85.333v-85.333zM426.667 192h-213.333l213.333 256v-256zM810.667 832h-213.333v-85.333h213.333v-554.667l-213.333 256v-384h213.333c46.933 0 85.333 38.4 85.333 85.333v597.333c0 46.933-38.4 85.333-85.333 85.333v0z" />
<glyph unicode="&#xe975;" glyph-name="computer" d="M853.333 192c46.933 0 84.907 38.4 84.907 85.333l0.427 426.667c0 46.933-38.4 85.333-85.333 85.333h-682.667c-46.933 0-85.333-38.4-85.333-85.333v-426.667c0-46.933 38.4-85.333 85.333-85.333h-170.667v-85.333h1024v85.333h-170.667zM170.667 704h682.667v-426.667h-682.667v426.667z" />
<glyph unicode="&#xe976;" glyph-name="confirmation-number" d="M938.667 533.333v170.667c0 47.36-38.4 85.333-85.333 85.333h-682.667c-46.933 0-84.907-37.973-84.907-85.333v-170.667c46.933 0 84.907-38.4 84.907-85.333s-37.973-85.333-85.333-85.333v-170.667c0-46.933 38.4-85.333 85.333-85.333h682.667c46.933 0 85.333 38.4 85.333 85.333v170.667c-46.933 0-85.333 38.4-85.333 85.333s38.4 85.333 85.333 85.333v0zM554.667 213.333h-85.333v85.333h85.333v-85.333zM554.667 405.333h-85.333v85.333h85.333v-85.333zM554.667 597.333h-85.333v85.333h85.333v-85.333z" />
<glyph unicode="&#xe977;" glyph-name="content-copy" d="M682.667 917.333h-512c-46.933 0-85.333-38.4-85.333-85.333v-597.333h85.333v597.333h512v85.333zM810.667 746.667h-469.333c-46.933 0-85.333-38.4-85.333-85.333v-597.333c0-46.933 38.4-85.333 85.333-85.333h469.333c46.933 0 85.333 38.4 85.333 85.333v597.333c0 46.933-38.4 85.333-85.333 85.333v0zM810.667 64h-469.333v597.333h469.333v-597.333z" />
<glyph unicode="&#xe978;" glyph-name="content-cut" d="M411.307 634.027c9.813 21.333 15.36 44.8 15.36 69.973 0 94.293-76.373 170.667-170.667 170.667s-170.667-76.373-170.667-170.667c0-94.293 76.373-170.667 170.667-170.667 25.173 0 48.64 5.547 69.973 15.36l100.693-100.693-100.693-100.693c-21.333 9.813-44.8 15.36-69.973 15.36-94.293 0-170.667-76.373-170.667-170.667s76.373-170.667 170.667-170.667c94.293 0 170.667 76.373 170.667 170.667 0 25.173-5.547 48.64-15.36 69.973l100.693 100.693 298.667-298.667h128v42.667l-527.36 527.36zM256 618.667c-46.933 0-85.333 37.973-85.333 85.333s38.4 85.333 85.333 85.333c46.933 0 85.333-37.973 85.333-85.333s-38.4-85.333-85.333-85.333v0zM256 106.667c-46.933 0-85.333 37.973-85.333 85.333s38.4 85.333 85.333 85.333c46.933 0 85.333-37.973 85.333-85.333s-38.4-85.333-85.333-85.333v0zM512 426.667c-11.947 0-21.333 9.387-21.333 21.333s9.387 21.333 21.333 21.333c11.947 0 21.333-9.387 21.333-21.333s-9.387-21.333-21.333-21.333v0zM810.667 832l-256-256 85.333-85.333 298.667 298.667v42.667h-128z" />
<glyph unicode="&#xe979;" glyph-name="content-paste" d="M810.667 874.667h-178.347c-17.92 49.493-64.853 85.333-120.32 85.333s-102.4-35.84-120.32-85.333h-178.347c-46.933 0-85.333-38.4-85.333-85.333v-682.667c0-46.933 38.4-85.333 85.333-85.333h597.333c46.933 0 85.333 38.4 85.333 85.333v682.667c0 46.933-38.4 85.333-85.333 85.333v0zM512 874.667c23.467 0 42.667-19.2 42.667-42.667s-19.2-42.667-42.667-42.667c-23.467 0-42.667 19.2-42.667 42.667s19.2 42.667 42.667 42.667v0zM810.667 106.667h-597.333v682.667h85.333v-128h426.667v128h85.333v-682.667z" />
<glyph unicode="&#xe97a;" glyph-name="control-point" d="M554.667 661.333h-85.333v-170.667h-170.667v-85.333h170.667v-170.667h85.333v170.667h170.667v85.333h-170.667v170.667zM512 874.667c-235.093 0-426.667-191.573-426.667-426.667s191.573-426.667 426.667-426.667c235.093 0 426.667 191.573 426.667 426.667s-191.573 426.667-426.667 426.667v0zM512 106.667c-188.16 0-341.333 153.173-341.333 341.333s153.173 341.333 341.333 341.333c188.16 0 341.333-153.173 341.333-341.333s-153.173-341.333-341.333-341.333v0z" />
<glyph unicode="&#xe97b;" glyph-name="control-point-duplicate" d="M682.667 618.667h-85.333v-128h-128v-85.333h128v-128h85.333v128h128v85.333h-128v128zM85.333 448c0 119.040 69.973 221.867 171.093 269.653v92.16c-148.907-52.907-256.427-194.987-256.427-361.813s107.52-308.907 256.427-361.813v92.16c-101.12 47.787-171.093 150.613-171.093 269.653v0zM640 832c-211.627 0-384-172.373-384-384s172.373-384 384-384c211.627 0 384 172.373 384 384s-172.373 384-384 384v0zM640 149.333c-164.693 0-298.667 133.973-298.667 298.667s133.973 298.667 298.667 298.667c164.693 0 298.667-133.973 298.667-298.667s-133.973-298.667-298.667-298.667v0z" />
<glyph unicode="&#xe97c;" glyph-name="create" d="M128 224v-160h160l471.893 471.893-160 160-471.893-471.893zM883.627 659.627c16.64 16.64 16.64 43.52 0 60.16l-99.84 99.84c-16.64 16.64-43.52 16.64-60.16 0l-78.080-78.080 160-160 78.080 78.080z" />
<glyph unicode="&#xe97d;" glyph-name="create-new-folder" d="M853.333 704h-341.333l-85.333 85.333h-256c-47.36 0-84.907-37.973-84.907-85.333l-0.427-512c0-47.36 37.973-85.333 85.333-85.333h682.667c47.36 0 85.333 37.973 85.333 85.333v426.667c0 47.36-37.973 85.333-85.333 85.333v0zM810.667 362.667h-128v-128h-85.333v128h-128v85.333h128v128h85.333v-128h128v-85.333z" />
<glyph unicode="&#xe97e;" glyph-name="crop" d="M725.333 320h85.333v341.333c0 46.933-38.4 85.333-85.333 85.333h-341.333v-85.333h341.333v-341.333zM298.667 234.667v682.667h-85.333v-170.667h-170.667v-85.333h170.667v-426.667c0-46.933 38.4-85.333 85.333-85.333h426.667v-170.667h85.333v170.667h170.667v85.333h-682.667z" />
<glyph unicode="&#xe97f;" glyph-name="crop-3-2" d="M810.667 789.333h-597.333c-46.933 0-85.333-38.4-85.333-85.333v-512c0-46.933 38.4-85.333 85.333-85.333h597.333c46.933 0 85.333 38.4 85.333 85.333v512c0 46.933-38.4 85.333-85.333 85.333v0zM810.667 192h-597.333v512h597.333v-512z" />
<glyph unicode="&#xe980;" glyph-name="crop-5-4" d="M810.667 746.667h-597.333c-46.933 0-85.333-38.4-85.333-85.333v-426.667c0-46.933 38.4-85.333 85.333-85.333h597.333c46.933 0 85.333 38.4 85.333 85.333v426.667c0 46.933-38.4 85.333-85.333 85.333v0zM810.667 234.667h-597.333v426.667h597.333v-426.667z" />
<glyph unicode="&#xe981;" glyph-name="crop-7-5" d="M810.667 661.333h-597.333c-46.933 0-85.333-38.4-85.333-85.333v-256c0-46.933 38.4-85.333 85.333-85.333h597.333c46.933 0 85.333 38.4 85.333 85.333v256c0 46.933-38.4 85.333-85.333 85.333v0zM810.667 320h-597.333v256h597.333v-256z" />
<glyph unicode="&#xe982;" glyph-name="crop-16-9" d="M810.667 704h-597.333c-46.933 0-85.333-38.4-85.333-85.333v-341.333c0-46.933 38.4-85.333 85.333-85.333h597.333c46.933 0 85.333 38.4 85.333 85.333v341.333c0 46.933-38.4 85.333-85.333 85.333v0zM810.667 277.333h-597.333v341.333h597.333v-341.333z" />
<glyph unicode="&#xe983;" glyph-name="crop-din" d="M810.667 832h-597.333c-46.933 0-85.333-38.4-85.333-85.333v-597.333c0-46.933 38.4-85.333 85.333-85.333h597.333c46.933 0 85.333 38.4 85.333 85.333v597.333c0 46.933-38.4 85.333-85.333 85.333v0zM810.667 149.333h-597.333v597.333h597.333v-597.333z" />
<glyph unicode="&#xe984;" glyph-name="crop-free" d="M128 746.667v-170.667h85.333v170.667h170.667v85.333h-170.667c-46.933 0-85.333-38.4-85.333-85.333v0zM213.333 320h-85.333v-170.667c0-46.933 38.4-85.333 85.333-85.333h170.667v85.333h-170.667v170.667zM810.667 149.333h-170.667v-85.333h170.667c46.933 0 85.333 38.4 85.333 85.333v170.667h-85.333v-170.667zM810.667 832h-170.667v-85.333h170.667v-170.667h85.333v170.667c0 46.933-38.4 85.333-85.333 85.333v0z" />
<glyph unicode="&#xe985;" glyph-name="crop-landscape" d="M810.667 746.667h-597.333c-46.933 0-85.333-38.4-85.333-85.333v-426.667c0-46.933 38.4-85.333 85.333-85.333h597.333c46.933 0 85.333 38.4 85.333 85.333v426.667c0 46.933-38.4 85.333-85.333 85.333v0zM810.667 234.667h-597.333v426.667h597.333v-426.667z" />
<glyph unicode="&#xe986;" glyph-name="crop-original" d="M810.667 832h-597.333c-46.933 0-85.333-38.4-85.333-85.333v-597.333c0-46.933 38.4-85.333 85.333-85.333h597.333c46.933 0 85.333 38.4 85.333 85.333v597.333c0 46.933-38.4 85.333-85.333 85.333v0zM810.667 149.333h-597.333v597.333h597.333v-597.333zM595.627 435.627l-117.333-151.040-83.627 100.693-117.333-150.613h469.333l-151.040 200.96z" />
<glyph unicode="&#xe987;" glyph-name="crop-portrait" d="M725.333 832h-426.667c-46.933 0-85.333-38.4-85.333-85.333v-597.333c0-46.933 38.4-85.333 85.333-85.333h426.667c46.933 0 85.333 38.4 85.333 85.333v597.333c0 46.933-38.4 85.333-85.333 85.333v0zM725.333 149.333h-426.667v597.333h426.667v-597.333z" />
<glyph unicode="&#xe988;" glyph-name="crop-rotate" d="M318.72 43.093c-139.52 66.56-239.36 201.813-254.72 362.24h-64c21.76-262.827 241.493-469.333 509.867-469.333 9.813 0 18.773 0.853 28.16 1.28l-162.56 162.987-56.747-57.173zM514.133 960c-9.813 0-18.773-0.853-28.16-1.707l162.56-162.56 56.747 56.747c139.52-66.133 239.36-201.387 254.72-361.813h64c-21.76 262.827-241.493 469.333-509.867 469.333v0zM682.667 362.667h85.333v256c0 47.36-38.4 85.333-85.333 85.333h-256v-85.333h256v-256zM341.333 277.333v512h-85.333v-85.333h-85.333v-85.333h85.333v-341.333c0-46.933 37.973-85.333 85.333-85.333h341.333v-85.333h85.333v85.333h85.333v85.333h-512z" />
<glyph unicode="&#xe989;" glyph-name="crop-square" d="M768 789.333h-512c-46.933 0-85.333-38.4-85.333-85.333v-512c0-46.933 38.4-85.333 85.333-85.333h512c46.933 0 85.333 38.4 85.333 85.333v512c0 46.933-38.4 85.333-85.333 85.333v0zM768 192h-512v512h512v-512z" />
<glyph unicode="&#xe98a;" glyph-name="data-usage" d="M554.667 872.533v-129.28c144.64-20.907 256-144.64 256-295.253 0-38.4-7.68-74.667-20.48-108.373l110.933-65.28c23.893 52.907 37.547 111.787 37.547 173.653 0 221.013-168.533 403.2-384 424.533v0zM512 149.333c-165.12 0-298.667 133.547-298.667 298.667 0 150.613 111.36 274.347 256 295.253v129.28c-215.893-21.333-384-203.093-384-424.533 0-235.52 190.72-426.667 426.24-426.667 141.227 0 266.24 68.693 343.893 174.507l-110.933 65.28c-54.613-68.267-138.24-111.787-232.533-111.787v0z" />
<glyph unicode="&#xe98b;" glyph-name="dehaze" d="M85.333 298.667v-85.333h853.333v85.333h-853.333zM85.333 512v-85.333h853.333v85.333h-853.333zM85.333 725.333v-85.333h853.333v85.333h-853.333z" />
<glyph unicode="&#xe98c;" glyph-name="desktop-mac" d="M896 874.667h-768c-46.933 0-85.333-38.4-85.333-85.333v-512c0-46.933 38.4-85.333 85.333-85.333h298.667l-85.333-128v-42.667h341.333v42.667l-85.333 128h298.667c46.933 0 85.333 38.4 85.333 85.333v512c0 46.933-38.4 85.333-85.333 85.333v0zM896 362.667h-768v426.667h768v-426.667z" />
<glyph unicode="&#xe98d;" glyph-name="desktop-windows" d="M896 874.667h-768c-46.933 0-85.333-38.4-85.333-85.333v-512c0-46.933 38.4-85.333 85.333-85.333h298.667v-85.333h-85.333v-85.333h341.333v85.333h-85.333v85.333h298.667c46.933 0 85.333 38.4 85.333 85.333v512c0 46.933-38.4 85.333-85.333 85.333v0zM896 277.333h-768v512h768v-512z" />
<glyph unicode="&#xe98e;" glyph-name="details" d="M128 789.333l384-682.667 384 682.667h-768zM272.213 704h480l-240.213-426.667-239.787 426.667z" />
<glyph unicode="&#xe98f;" glyph-name="developer-board" d="M938.667 576v85.333h-85.333v85.333c0 46.933-38.4 85.333-85.333 85.333h-597.333c-46.933 0-85.333-38.4-85.333-85.333v-597.333c0-46.933 38.4-85.333 85.333-85.333h597.333c46.933 0 85.333 38.4 85.333 85.333v85.333h85.333v85.333h-85.333v85.333h85.333v85.333h-85.333v85.333h85.333zM768 149.333h-597.333v597.333h597.333v-597.333zM256 405.333h213.333v-170.667h-213.333v170.667zM512 661.333h170.667v-128h-170.667v128zM256 661.333h213.333v-213.333h-213.333v213.333zM512 490.667h170.667v-256h-170.667v256z" />
<glyph unicode="&#xe990;" glyph-name="developer-mode" d="M298.667 746.667h426.667v-85.333h85.333v170.667c0 46.933-38.4 84.907-85.333 84.907l-426.667 0.427c-46.933 0-85.333-38.4-85.333-85.333v-170.667h85.333v85.333zM657.493 252.16l195.84 195.84-195.84 195.84-60.16-60.587 135.253-135.253-135.253-135.253 60.16-60.587zM426.667 312.747l-135.253 135.253 135.253 135.253-60.16 60.587-195.84-195.84 195.84-195.84 60.16 60.587zM725.333 149.333h-426.667v85.333h-85.333v-170.667c0-46.933 38.4-85.333 85.333-85.333h426.667c46.933 0 85.333 38.4 85.333 85.333v170.667h-85.333v-85.333z" />
<glyph unicode="&#xe991;" glyph-name="device-hub" d="M725.333 277.333l-170.667 170.667v135.68c49.493 17.92 85.333 64.853 85.333 120.32 0 70.827-57.173 128-128 128s-128-57.173-128-128c0-55.467 35.84-102.4 85.333-120.32v-135.68l-170.667-170.667h-170.667v-213.333h213.333v130.133l170.667 179.2 170.667-179.2v-130.133h213.333v213.333h-170.667z" />
<glyph unicode="&#xe992;" glyph-name="devices" d="M170.667 704h768v85.333h-768c-46.933 0-85.333-38.4-85.333-85.333v-469.333h-85.333v-128h597.333v128h-426.667v469.333zM981.333 618.667h-256c-23.467 0-42.667-19.2-42.667-42.667v-426.667c0-23.467 19.2-42.667 42.667-42.667h256c23.467 0 42.667 19.2 42.667 42.667v426.667c0 23.467-19.2 42.667-42.667 42.667v0zM938.667 234.667h-170.667v298.667h170.667v-298.667z" />
<glyph unicode="&#xe993;" glyph-name="devices-other" d="M128 704h768v85.333h-768c-46.933 0-85.333-38.4-85.333-85.333v-512c0-46.933 38.4-85.333 85.333-85.333h170.667v85.333h-170.667v512zM554.667 448h-170.667v-75.947c-26.027-23.467-42.667-56.747-42.667-94.72s16.64-71.253 42.667-94.72v-75.947h170.667v75.947c26.027 23.467 42.667 57.173 42.667 94.72s-16.64 71.253-42.667 94.72v75.947zM469.333 213.333c-35.413 0-64 28.587-64 64s28.587 64 64 64c35.413 0 64-28.587 64-64s-28.587-64-64-64v0zM938.667 618.667h-256c-21.333 0-42.667-21.333-42.667-42.667v-426.667c0-21.333 21.333-42.667 42.667-42.667h256c21.333 0 42.667 21.333 42.667 42.667v426.667c0 21.333-21.333 42.667-42.667 42.667v0zM896 192h-170.667v341.333h170.667v-341.333z" />
<glyph unicode="&#xe994;" glyph-name="directions" d="M926.293 478.293l-384 384c-16.64 16.64-43.52 16.64-60.16 0l-384-384c-16.64-16.64-16.64-43.52 0-60.16l384-384c16.64-16.64 43.52-16.64 60.16 0l384 384c16.64 16.213 16.64 43.093 0 60.16v0zM597.333 341.333v106.667h-170.667v-128h-85.333v170.667c0 23.467 19.2 42.667 42.667 42.667h213.333v106.667l149.333-149.333-149.333-149.333z" />
<glyph unicode="&#xe995;" glyph-name="directions-bike" d="M661.333 725.333c46.933 0 85.333 38.4 85.333 85.333s-38.4 85.333-85.333 85.333c-46.933 0-85.333-38.4-85.333-85.333s38.4-85.333 85.333-85.333v0zM213.333 448c-119.467 0-213.333-93.867-213.333-213.333s93.867-213.333 213.333-213.333c119.467 0 213.333 93.867 213.333 213.333s-93.867 213.333-213.333 213.333v0zM213.333 85.333c-81.067 0-149.333 68.267-149.333 149.333s68.267 149.333 149.333 149.333c81.067 0 149.333-68.267 149.333-149.333s-68.267-149.333-149.333-149.333v0zM460.8 512l102.4 102.4 34.133-34.133c55.467-55.467 128-89.6 217.6-89.6v85.333c-64 0-115.2 25.6-153.6 64l-81.067 81.067c-21.333 17.067-42.667 25.6-68.267 25.6s-46.933-8.533-59.733-25.6l-119.467-119.467c-17.067-17.067-25.6-38.4-25.6-59.733 0-25.6 8.533-46.933 25.6-59.733l136.533-119.467v-213.333h85.333v264.533l-93.867 98.133zM810.667 448c-119.467 0-213.333-93.867-213.333-213.333s93.867-213.333 213.333-213.333c119.467 0 213.333 93.867 213.333 213.333s-93.867 213.333-213.333 213.333v0zM810.667 85.333c-81.067 0-149.333 68.267-149.333 149.333s68.267 149.333 149.333 149.333c81.067 0 149.333-68.267 149.333-149.333s-68.267-149.333-149.333-149.333v0z" />
<glyph unicode="&#xe996;" glyph-name="directions-boat" d="M853.335 64c-59.307 0-118.613 20.053-170.667 56.32-104.107-72.96-237.227-72.96-341.333 0-52.053-36.267-111.36-56.32-170.667-56.32h-85.333v-85.333h85.333c58.88 0 116.907 14.933 170.667 42.24 107.52-55.040 233.813-55.040 341.333 0 53.76-27.733 111.787-42.24 170.667-42.24h85.333v85.333h-85.333zM168.535 149.333h2.133c68.267 0 128.853 37.547 170.667 85.333 41.813-47.787 102.4-85.333 170.667-85.333s128.853 37.547 170.667 85.333c41.813-47.787 102.4-85.333 170.667-85.333h2.133l80.64 285.013c3.413 11.093 2.56 23.040-2.56 33.28s-14.507 17.92-25.6 21.333l-54.613 17.92v197.12c0 46.933-38.4 85.333-85.333 85.333h-128v128h-256v-128h-128c-46.933 0-85.333-38.4-85.333-85.333v-197.12l-55.040-17.92c-11.093-3.413-20.48-11.093-25.6-21.333s-6.4-22.187-2.56-33.28l81.067-285.013zM256.001 704h512v-169.387l-256 84.053-256-84.053v169.387z" />
<glyph unicode="&#xe997;" glyph-name="directions-bus" d="M170.667 277.333c0-37.547 16.64-71.253 42.667-94.72v-75.947c0-23.467 19.2-42.667 42.667-42.667h42.667c23.467 0 42.667 19.2 42.667 42.667v42.667h341.333v-42.667c0-23.467 19.2-42.667 42.667-42.667h42.667c23.467 0 42.667 19.2 42.667 42.667v75.947c26.027 23.467 42.667 57.173 42.667 94.72v426.667c0 149.333-152.747 170.667-341.333 170.667s-341.333-21.333-341.333-170.667v-426.667zM320 234.667c-35.413 0-64 28.587-64 64s28.587 64 64 64c35.413 0 64-28.587 64-64s-28.587-64-64-64v0zM704 234.667c-35.413 0-64 28.587-64 64s28.587 64 64 64c35.413 0 64-28.587 64-64s-28.587-64-64-64v0zM768 490.667h-512v213.333h512v-213.333z" />
<glyph unicode="&#xe998;" glyph-name="directions-car" d="M807.253 703.573c-8.533 25.173-32.427 43.093-60.587 43.093h-469.333c-28.16 0-51.627-17.92-60.587-43.093l-88.747-255.573v-341.333c0-23.467 19.2-42.667 42.667-42.667h42.667c23.467 0 42.667 19.2 42.667 42.667v42.667h512v-42.667c0-23.467 19.2-42.667 42.667-42.667h42.667c23.467 0 42.667 19.2 42.667 42.667v341.333l-88.747 255.573zM277.333 277.333c-35.413 0-64 28.587-64 64s28.587 64 64 64c35.413 0 64-28.587 64-64s-28.587-64-64-64v0zM746.667 277.333c-35.413 0-64 28.587-64 64s28.587 64 64 64c35.413 0 64-28.587 64-64s-28.587-64-64-64v0zM213.333 490.667l64 192h469.333l64-192h-597.333z" />
<glyph unicode="&#xe999;" glyph-name="directions-railway" d="M170.667 298.667c0-82.347 66.987-149.333 149.333-149.333l-64-64v-21.333h512v21.333l-64 64c82.347 0 149.333 66.987 149.333 149.333v448c0 149.333-152.747 170.667-341.333 170.667s-341.333-21.333-341.333-170.667v-448zM512 234.667c-46.933 0-85.333 38.4-85.333 85.333s38.4 85.333 85.333 85.333c46.933 0 85.333-38.4 85.333-85.333s-38.4-85.333-85.333-85.333v0zM768 533.333h-512v213.333h512v-213.333z" />
<glyph unicode="&#xe99a;" glyph-name="directions-run" d="M575.573 726.187c46.933 0 85.333 38.4 85.333 85.333s-38.4 85.333-85.333 85.333c-46.933 0-85.333-38.4-85.333-85.333s38.4-85.333 85.333-85.333v0zM421.973 133.12l42.667 187.733 89.6-85.333v-256h85.333v320l-89.6 85.333 25.6 128c55.467-64 140.8-106.667 234.667-106.667v85.333c-81.067 0-149.333 42.667-183.467 102.4l-42.667 68.267c-17.067 25.6-42.667 42.667-72.533 42.667-12.8 0-21.333-4.267-34.133-4.267l-221.867-93.867v-200.533h85.333v145.067l76.8 29.867-68.267-345.6-209.067 42.667-17.067-85.333 298.667-59.733z" />
<glyph unicode="&#xe99b;" glyph-name="directions-subway" d="M512 874.667c-188.587 0-341.333-21.333-341.333-170.667v-405.333c0-82.347 66.987-149.333 149.333-149.333l-64-64v-21.333h512v21.333l-64 64c82.347 0 149.333 66.987 149.333 149.333v405.333c0 149.333-152.747 170.667-341.333 170.667v0zM320 234.667c-35.413 0-64 28.587-64 64s28.587 64 64 64c35.413 0 64-28.587 64-64s-28.587-64-64-64v0zM469.333 490.667h-213.333v213.333h213.333v-213.333zM704 234.667c-35.413 0-64 28.587-64 64s28.587 64 64 64c35.413 0 64-28.587 64-64s-28.587-64-64-64v0zM768 490.667h-213.333v213.333h213.333v-213.333z" />
<glyph unicode="&#xe99c;" glyph-name="directions-transit" d="M512 874.667c-188.587 0-341.333-21.333-341.333-170.667v-405.333c0-82.347 66.987-149.333 149.333-149.333l-64-64v-21.333h512v21.333l-64 64c82.347 0 149.333 66.987 149.333 149.333v405.333c0 149.333-152.747 170.667-341.333 170.667v0zM320 234.667c-35.413 0-64 28.587-64 64s28.587 64 64 64c35.413 0 64-28.587 64-64s-28.587-64-64-64v0zM469.333 490.667h-213.333v213.333h213.333v-213.333zM704 234.667c-35.413 0-64 28.587-64 64s28.587 64 64 64c35.413 0 64-28.587 64-64s-28.587-64-64-64v0zM768 490.667h-213.333v213.333h213.333v-213.333z" />
<glyph unicode="&#xe99d;" glyph-name="directions-walk" d="M576 725.333c46.933 0 85.333 38.4 85.333 85.333s-38.4 85.333-85.333 85.333c-46.933 0-85.333-38.4-85.333-85.333s38.4-85.333 85.333-85.333v0zM418.133 580.267l-119.467-601.6h89.6l76.8 341.333 89.6-85.333v-256h85.333v320l-89.6 85.333 25.6 128c55.467-64 140.8-106.667 234.667-106.667v85.333c-81.067 0-149.333 42.667-183.467 102.4l-42.667 68.267c-17.067 25.6-42.667 42.667-72.533 42.667-12.8 0-21.333-4.267-34.133-4.267l-221.867-93.867v-200.533h85.333v145.067l76.8 29.867z" />
<glyph unicode="&#xe99e;" glyph-name="disc-full" d="M853.333 277.333h85.333v85.333h-85.333v-85.333zM853.333 661.333v-213.333h85.333v213.333h-85.333zM426.667 789.333c-188.587 0-341.333-152.747-341.333-341.333s152.747-341.333 341.333-341.333c188.587 0 341.333 152.747 341.333 341.333s-152.747 341.333-341.333 341.333v0zM426.667 362.667c-46.933 0-85.333 38.4-85.333 85.333s38.4 85.333 85.333 85.333c46.933 0 85.333-38.4 85.333-85.333s-38.4-85.333-85.333-85.333v0z" />
<glyph unicode="&#xe99f;" glyph-name="do-not-disturb" d="M512 874.667c-235.52 0-426.667-191.147-426.667-426.667s191.147-426.667 426.667-426.667c235.52 0 426.667 191.147 426.667 426.667s-191.147 426.667-426.667 426.667v0zM512 106.667c-188.587 0-341.333 152.747-341.333 341.333 0 78.933 26.88 151.467 72.107 209.067l478.293-478.293c-57.6-45.227-130.133-72.107-209.067-72.107v0zM781.227 238.933l-478.293 478.293c57.6 45.227 130.133 72.107 209.067 72.107 188.587 0 341.333-152.747 341.333-341.333 0-78.933-26.88-151.467-72.107-209.067v0z" />
<glyph unicode="&#xe9a0;" glyph-name="do-not-disturb-alt" d="M512 874.667c-234.667 0-426.667-192-426.667-426.667s192-426.667 426.667-426.667c234.667 0 426.667 192 426.667 426.667s-192 426.667-426.667 426.667v0zM170.667 448c0 187.733 153.6 341.333 341.333 341.333 76.8 0 149.333-25.6 209.067-72.533l-477.867-477.867c-46.933 59.733-72.533 132.267-72.533 209.067v0zM512 106.667c-76.8 0-149.333 25.6-209.067 72.533l477.867 477.867c46.933-59.733 72.533-132.267 72.533-209.067 0-187.733-153.6-341.333-341.333-341.333v0z" />
<glyph unicode="&#xe9a1;" glyph-name="dock" d="M341.333-21.333h341.333v85.333h-341.333v-85.333zM682.667 916.907l-341.333 0.427c-46.933 0-85.333-38.4-85.333-85.333v-597.333c0-46.933 38.4-85.333 85.333-85.333h341.333c46.933 0 85.333 38.4 85.333 85.333v597.333c0 46.933-38.4 84.907-85.333 84.907v0zM682.667 320h-341.333v426.667h341.333v-426.667z" />
<glyph unicode="&#xe9a2;" glyph-name="domain" d="M512 661.333v170.667h-426.667v-768h853.333v597.333h-426.667zM256 149.333h-85.333v85.333h85.333v-85.333zM256 320h-85.333v85.333h85.333v-85.333zM256 490.667h-85.333v85.333h85.333v-85.333zM256 661.333h-85.333v85.333h85.333v-85.333zM426.667 149.333h-85.333v85.333h85.333v-85.333zM426.667 320h-85.333v85.333h85.333v-85.333zM426.667 490.667h-85.333v85.333h85.333v-85.333zM426.667 661.333h-85.333v85.333h85.333v-85.333zM853.333 149.333h-341.333v85.333h85.333v85.333h-85.333v85.333h85.333v85.333h-85.333v85.333h341.333v-426.667zM768 490.667h-85.333v-85.333h85.333v85.333zM768 320h-85.333v-85.333h85.333v85.333z" />
<glyph unicode="&#xe9a3;" glyph-name="drafts" d="M938.24 618.667c0 30.72-15.787 57.6-40.107 72.533l-386.133 226.133-386.133-226.133c-24.32-14.933-40.533-41.813-40.533-72.533v-426.667c0-46.933 38.4-85.333 85.333-85.333h682.667c46.933 0 85.333 38.4 85.333 85.333l-0.427 426.667zM512 405.333l-352.427 220.16 352.427 206.507 352.427-206.507-352.427-220.16z" />
<glyph unicode="&#xe9a4;" glyph-name="drag-handle" d="M853.333 576h-682.667v-85.333h682.667v85.333zM170.667 320h682.667v85.333h-682.667v-85.333z" />
<glyph unicode="&#xe9a5;" glyph-name="drive-eta" d="M807.253 746.24c-8.533 25.173-32.427 43.093-60.587 43.093h-469.333c-28.16 0-51.627-17.92-60.587-43.093l-88.747-255.573v-341.333c0-23.467 19.2-42.667 42.667-42.667h42.667c23.467 0 42.667 19.2 42.667 42.667v42.667h512v-42.667c0-23.467 19.2-42.667 42.667-42.667h42.667c23.467 0 42.667 19.2 42.667 42.667v341.333l-88.747 255.573zM277.333 320c-35.413 0-64 28.587-64 64s28.587 64 64 64c35.413 0 64-28.587 64-64s-28.587-64-64-64v0zM746.667 320c-35.413 0-64 28.587-64 64s28.587 64 64 64c35.413 0 64-28.587 64-64s-28.587-64-64-64v0zM213.333 533.333l64 192h469.333l64-192h-597.333z" />
<glyph unicode="&#xe9a6;" glyph-name="dvr" d="M896 832h-768c-46.933 0-85.333-38.4-85.333-85.333v-512c0-46.933 38.4-85.333 85.333-85.333h213.333v-85.333h341.333v85.333h213.333c46.933 0 84.907 38.4 84.907 85.333l0.427 512c0 46.933-38.4 85.333-85.333 85.333v0zM896 234.667h-768v512h768v-512zM810.667 618.667h-469.333v-85.333h469.333v85.333zM810.667 448h-469.333v-85.333h469.333v85.333zM298.667 618.667h-85.333v-85.333h85.333v85.333zM298.667 448h-85.333v-85.333h85.333v85.333z" />
<glyph unicode="&#xe9a7;" glyph-name="edit" d="M128 224v-160h160l471.893 471.893-160 160-471.893-471.893zM883.627 659.627c16.64 16.64 16.64 43.52 0 60.16l-99.84 99.84c-16.64 16.64-43.52 16.64-60.16 0l-78.080-78.080 160-160 78.080 78.080z" />
<glyph unicode="&#xe9a8;" glyph-name="edit-location" d="M512 874.667c-164.693 0-298.667-133.973-298.667-298.667 0-224 298.667-554.667 298.667-554.667s298.667 330.667 298.667 554.667c0 164.693-133.973 298.667-298.667 298.667v0zM445.44 448h-61.44v61.44l142.933 142.507 61.013-61.013-142.507-142.933zM635.307 637.867l-29.867-29.867-61.44 61.44 29.867 29.867c6.4 6.4 16.64 6.4 23.040 0l38.4-38.4c6.4-6.4 6.4-16.64 0-23.040v0z" />
<glyph unicode="&#xe9a9;" glyph-name="enhanced-encryption" d="M768 618.667h-42.667v85.333c0 117.76-95.573 213.333-213.333 213.333s-213.333-95.573-213.333-213.333v-85.333h-42.667c-46.933 0-85.333-38.4-85.333-85.333v-426.667c0-46.933 38.4-85.333 85.333-85.333h512c46.933 0 85.333 38.4 85.333 85.333v426.667c0 46.933-38.4 85.333-85.333 85.333v0zM379.733 704c0 72.96 59.307 132.267 132.267 132.267s132.267-59.307 132.267-132.267v-85.333h-264.533v85.333zM682.667 277.333h-128v-128h-85.333v128h-128v85.333h128v128h85.333v-128h128v-85.333z" />
<glyph unicode="&#xe9aa;" glyph-name="event-available" d="M705.28 488.107l-45.227 45.227-208.213-208.213-90.453 90.453-45.227-45.227 135.68-135.68 253.44 253.44zM810.667 832h-42.667v85.333h-85.333v-85.333h-341.333v85.333h-85.333v-85.333h-42.667c-47.36 0-84.907-38.4-84.907-85.333l-0.427-597.333c0-46.933 37.973-85.333 85.333-85.333h597.333c46.933 0 85.333 38.4 85.333 85.333v597.333c0 46.933-38.4 85.333-85.333 85.333v0zM810.667 149.333h-597.333v469.333h597.333v-469.333z" />
<glyph unicode="&#xe9ab;" glyph-name="event-busy" d="M397.227 234.667l104.107 104.107 104.107-104.107 45.227 45.227-104.107 104.107 104.107 104.107-45.227 45.227-104.107-104.107-104.107 104.107-45.227-45.227 104.107-104.107-104.107-104.107 45.227-45.227zM810.667 832h-42.667v85.333h-85.333v-85.333h-341.333v85.333h-85.333v-85.333h-42.667c-47.36 0-84.907-38.4-84.907-85.333l-0.427-597.333c0-46.933 37.973-85.333 85.333-85.333h597.333c46.933 0 85.333 38.4 85.333 85.333v597.333c0 46.933-38.4 85.333-85.333 85.333v0zM810.667 149.333h-597.333v469.333h597.333v-469.333z" />
<glyph unicode="&#xe9ac;" glyph-name="event-note" d="M725.333 533.333h-426.667v-85.333h426.667v85.333zM810.667 832h-42.667v85.333h-85.333v-85.333h-341.333v85.333h-85.333v-85.333h-42.667c-47.36 0-84.907-38.4-84.907-85.333l-0.427-597.333c0-46.933 37.973-85.333 85.333-85.333h597.333c46.933 0 85.333 38.4 85.333 85.333v597.333c0 46.933-38.4 85.333-85.333 85.333v0zM810.667 149.333h-597.333v469.333h597.333v-469.333zM597.333 362.667h-298.667v-85.333h298.667v85.333z" />
<glyph unicode="&#xe9ad;" glyph-name="expand-less" d="M512 618.667l-256-256 60.16-60.16 195.84 195.413 195.84-195.413 60.16 60.16z" />
<glyph unicode="&#xe9ae;" glyph-name="expand-more" d="M707.84 593.493l-195.84-195.413-195.84 195.413-60.16-60.16 256-256 256 256z" />
<glyph unicode="&#xe9af;" glyph-name="exposure" d="M640 234.667v-85.333h85.333v85.333h85.333v85.333h-85.333v85.333h-85.333v-85.333h-85.333v-85.333h85.333zM853.333 874.667h-682.667c-46.933 0-85.333-38.4-85.333-85.333v-682.667c0-46.933 38.4-85.333 85.333-85.333h682.667c46.933 0 85.333 38.4 85.333 85.333v682.667c0 46.933-38.4 85.333-85.333 85.333v0zM213.333 746.667h256v-85.333h-256v85.333zM853.333 106.667h-682.667l682.667 682.667v-682.667z" />
<glyph unicode="&#xe9b0;" glyph-name="exposure-neg-1" d="M170.667 490.667v-85.333h341.333v85.333h-341.333zM810.667 192h-85.333v453.12l-128-43.52v72.533l200.533 72.533h12.8v-554.667z" />
<glyph unicode="&#xe9b1;" glyph-name="exposure-neg-2" d="M642.133 264.96l122.027 130.987c16.213 16.64 30.72 33.707 44.373 50.347s25.173 33.28 34.987 49.92c9.813 16.64 17.493 33.28 23.040 49.92s8.107 33.707 8.107 50.347c0 22.613-3.84 43.52-11.52 62.293s-18.773 34.56-33.28 47.36c-14.507 13.227-32.853 23.040-53.76 30.293-21.76 6.827-46.080 10.24-73.387 10.24-29.44 0-55.893-4.693-78.933-13.653s-42.667-21.76-58.027-37.547c-15.787-15.787-27.733-34.133-35.84-55.467-7.68-20.053-11.52-41.387-11.947-64h91.307c0.427 13.227 2.133 25.6 5.547 37.12 3.84 12.373 9.813 23.040 17.067 32 7.68 8.96 17.493 15.787 29.013 20.907s25.6 7.68 40.96 7.68c13.227 0 24.747-2.133 34.56-6.4s18.347-10.667 25.173-18.347c6.827-7.68 11.947-17.067 15.787-27.733 3.413-10.667 5.547-22.187 5.547-34.56 0-9.387-1.28-18.347-3.413-27.733-2.56-9.387-6.4-19.2-12.373-29.867s-13.653-22.613-23.893-35.413c-9.813-12.8-22.187-27.733-37.547-43.947l-177.92-194.133v-63.573h368.213v72.96h-253.867zM85.333 490.667v-85.333h341.333v85.333h-341.333z" />
<glyph unicode="&#xe9b2;" glyph-name="exposure-plus-1" d="M426.667 661.333h-85.333v-170.667h-170.667v-85.333h170.667v-170.667h85.333v170.667h170.667v85.333h-170.667v170.667zM853.333 192h-85.333v453.12l-128-43.52v72.533l200.533 72.533h12.8v-554.667z" />
<glyph unicode="&#xe9b3;" glyph-name="exposure-plus-2" d="M684.8 264.96l122.027 130.987c16.213 16.64 30.72 33.707 44.373 50.347s25.173 33.28 34.987 49.92c9.813 16.64 17.493 33.28 23.040 49.92s8.107 33.707 8.107 50.347c0 22.613-3.84 43.52-11.52 62.293s-18.773 34.56-33.28 47.36c-14.507 13.227-32.853 23.040-53.76 30.293-21.76 6.827-46.080 10.24-73.387 10.24-29.44 0-55.893-4.693-78.933-13.653s-42.667-21.76-58.027-37.547c-15.787-15.787-27.733-34.133-35.84-55.467-7.68-20.053-11.52-41.387-11.947-64h91.307c0.427 13.227 2.133 25.6 5.547 37.12 3.84 12.373 9.813 23.040 17.067 32 7.68 8.96 17.493 15.787 29.013 20.907s25.6 7.68 40.96 7.68c13.227 0 24.747-2.133 34.56-6.4s18.347-10.667 25.173-18.347c6.827-7.68 11.947-17.067 15.787-27.733 3.413-10.667 5.547-22.187 5.547-34.56 0-9.387-1.28-18.347-3.413-27.733-2.56-9.387-6.4-19.2-12.373-29.867s-13.653-22.613-23.893-35.413c-9.813-12.8-22.187-27.733-37.547-43.947l-177.92-194.133v-63.573h368.213v72.96h-253.867zM341.333 661.333h-85.333v-170.667h-170.667v-85.333h170.667v-170.667h85.333v170.667h170.667v85.333h-170.667v170.667z" />
<glyph unicode="&#xe9b4;" glyph-name="exposure-zero" d="M688.64 426.667c0-42.667-4.267-78.933-12.8-108.8s-20.48-54.187-35.413-72.533c-15.36-18.773-33.707-32-55.467-40.533s-45.653-12.8-72.533-12.8c-26.453 0-50.347 4.267-72.107 12.8s-40.533 21.76-55.893 40.533c-15.36 18.773-27.733 43.093-36.267 72.533-8.533 29.867-12.8 66.133-12.8 108.8v87.040c0 42.667 4.267 78.933 12.8 108.8s20.48 53.76 35.84 72.107c15.36 18.347 34.133 31.573 55.893 39.68 21.333 8.107 45.653 12.373 72.107 12.373 26.88 0 50.773-4.267 72.533-12.373s40.533-21.333 55.893-39.68c15.36-18.347 27.307-42.24 35.84-72.107s12.8-65.707 12.8-108.8v-87.040h-0.427zM598.613 527.36c0 27.307-2.133 50.347-5.547 69.12-3.84 18.773-9.387 33.707-17.067 45.227-7.253 11.52-16.64 19.627-27.307 24.747-10.667 5.547-23.040 8.107-36.693 8.107s-26.027-2.56-36.693-7.68c-10.667-5.12-20.053-13.227-27.307-24.747s-13.227-26.453-17.067-45.227c-3.84-18.773-5.547-41.813-5.547-69.12v-113.92c0-27.307 2.133-50.347 5.973-69.12 3.84-19.2 9.813-34.56 17.067-46.507s16.64-20.48 27.307-26.027c10.667-5.547 23.040-8.107 37.12-8.107s26.453 2.56 37.12 8.107c10.667 5.547 19.627 14.080 26.88 26.027s12.8 27.307 16.64 46.507c3.84 19.2 5.547 42.24 5.547 69.12v113.493h-0.427z" />
<glyph unicode="&#xe9b5;" glyph-name="file-download" d="M810.667 576h-170.667v256h-256v-256h-170.667l298.667-298.667 298.667 298.667zM213.333 192v-85.333h597.333v85.333h-597.333z" />
<glyph unicode="&#xe9b6;" glyph-name="file-upload" d="M384 277.333h256v256h170.667l-298.667 298.667-298.667-298.667h170.667v-256zM213.333 192h597.333v-85.333h-597.333v85.333z" />
<glyph unicode="&#xe9b7;" glyph-name="filter" d="M680.96 520.96l-117.333-151.040-83.627 100.693-117.333-150.613h469.333l-151.040 200.96zM128 746.667h-85.333v-682.667c0-46.933 38.4-85.333 85.333-85.333h682.667v85.333h-682.667v682.667zM896 917.333h-597.333c-46.933 0-85.333-38.4-85.333-85.333v-597.333c0-46.933 38.4-85.333 85.333-85.333h597.333c46.933 0 85.333 38.4 85.333 85.333v597.333c0 46.933-38.4 85.333-85.333 85.333v0zM896 234.667h-597.333v597.333h597.333v-597.333z" />
<glyph unicode="&#xe9b8;" glyph-name="filter-1" d="M128 746.667h-85.333v-682.667c0-46.933 38.4-85.333 85.333-85.333h682.667v85.333h-682.667v682.667zM597.333 320h85.333v426.667h-170.667v-85.333h85.333v-341.333zM896 917.333h-597.333c-46.933 0-85.333-38.4-85.333-85.333v-597.333c0-46.933 38.4-85.333 85.333-85.333h597.333c46.933 0 85.333 38.4 85.333 85.333v597.333c0 46.933-38.4 85.333-85.333 85.333v0zM896 234.667h-597.333v597.333h597.333v-597.333z" />
<glyph unicode="&#xe9b9;" glyph-name="filter-2" d="M128 746.667h-85.333v-682.667c0-46.933 38.4-85.333 85.333-85.333h682.667v85.333h-682.667v682.667zM896 917.333h-597.333c-46.933 0-85.333-38.4-85.333-85.333v-597.333c0-46.933 38.4-85.333 85.333-85.333h597.333c46.933 0 85.333 38.4 85.333 85.333v597.333c0 46.933-38.4 85.333-85.333 85.333v0zM896 234.667h-597.333v597.333h597.333v-597.333zM725.333 405.333h-170.667v85.333h85.333c46.933 0 85.333 37.973 85.333 85.333v85.333c0 47.36-38.4 85.333-85.333 85.333h-170.667v-85.333h170.667v-85.333h-85.333c-46.933 0-85.333-37.973-85.333-85.333v-170.667h256v85.333z" />
<glyph unicode="&#xe9ba;" glyph-name="filter-3" d="M896 917.333h-597.333c-46.933 0-85.333-38.4-85.333-85.333v-597.333c0-46.933 38.4-85.333 85.333-85.333h597.333c46.933 0 85.333 38.4 85.333 85.333v597.333c0 46.933-38.4 85.333-85.333 85.333v0zM896 234.667h-597.333v597.333h597.333v-597.333zM128 746.667h-85.333v-682.667c0-46.933 38.4-85.333 85.333-85.333h682.667v85.333h-682.667v682.667zM725.333 405.333v64c0 35.413-28.587 64-64 64 35.413 0 64 28.587 64 64v64c0 47.36-38.4 85.333-85.333 85.333h-170.667v-85.333h170.667v-85.333h-85.333v-85.333h85.333v-85.333h-170.667v-85.333h170.667c46.933 0 85.333 37.973 85.333 85.333v0z" />
<glyph unicode="&#xe9bb;" glyph-name="filter-4" d="M128 746.667h-85.333v-682.667c0-46.933 38.4-85.333 85.333-85.333h682.667v85.333h-682.667v682.667zM640 320h85.333v426.667h-85.333v-170.667h-85.333v170.667h-85.333v-256h170.667v-170.667zM896 917.333h-597.333c-46.933 0-85.333-38.4-85.333-85.333v-597.333c0-46.933 38.4-85.333 85.333-85.333h597.333c46.933 0 85.333 38.4 85.333 85.333v597.333c0 46.933-38.4 85.333-85.333 85.333v0zM896 234.667h-597.333v597.333h597.333v-597.333z" />
<glyph unicode="&#xe9bc;" glyph-name="filter-5" d="M896 917.333h-597.333c-46.933 0-85.333-38.4-85.333-85.333v-597.333c0-46.933 38.4-85.333 85.333-85.333h597.333c46.933 0 85.333 38.4 85.333 85.333v597.333c0 46.933-38.4 85.333-85.333 85.333v0zM896 234.667h-597.333v597.333h597.333v-597.333zM128 746.667h-85.333v-682.667c0-46.933 38.4-85.333 85.333-85.333h682.667v85.333h-682.667v682.667zM725.333 405.333v85.333c0 47.36-38.4 85.333-85.333 85.333h-85.333v85.333h170.667v85.333h-256v-256h170.667v-85.333h-170.667v-85.333h170.667c46.933 0 85.333 37.973 85.333 85.333v0z" />
<glyph unicode="&#xe9bd;" glyph-name="filter-6" d="M128 746.667h-85.333v-682.667c0-46.933 38.4-85.333 85.333-85.333h682.667v85.333h-682.667v682.667zM896 917.333h-597.333c-46.933 0-85.333-38.4-85.333-85.333v-597.333c0-46.933 38.4-85.333 85.333-85.333h597.333c46.933 0 85.333 38.4 85.333 85.333v597.333c0 46.933-38.4 85.333-85.333 85.333v0zM896 234.667h-597.333v597.333h597.333v-597.333zM554.667 320h85.333c46.933 0 85.333 37.973 85.333 85.333v85.333c0 47.36-38.4 85.333-85.333 85.333h-85.333v85.333h170.667v85.333h-170.667c-46.933 0-85.333-37.973-85.333-85.333v-256c0-47.36 38.4-85.333 85.333-85.333v0zM554.667 490.667h85.333v-85.333h-85.333v85.333z" />
<glyph unicode="&#xe9be;" glyph-name="filter-7" d="M128 746.667h-85.333v-682.667c0-46.933 38.4-85.333 85.333-85.333h682.667v85.333h-682.667v682.667zM896 917.333h-597.333c-46.933 0-85.333-38.4-85.333-85.333v-597.333c0-46.933 38.4-85.333 85.333-85.333h597.333c46.933 0 85.333 38.4 85.333 85.333v597.333c0 46.933-38.4 85.333-85.333 85.333v0zM896 234.667h-597.333v597.333h597.333v-597.333zM554.667 320l170.667 341.333v85.333h-256v-85.333h170.667l-170.667-341.333h85.333z" />
</font>
</defs>
</svg>
